Торрент файл
скачать торрент магнет ссылка Добавлен: 22 дек 2012, 23:49
Размер: 745.72 МБ
Сидеров: 1
Личеров: 2
Статус: (salma3)
Автор

СообщениеДобавлено: 22 дек 2012, 23:49 

В сети
Супермодератор
Аватара пользователя
Дата регистрации:
15 фев 2012, 16:44
Возраст: 28
Спасибо: 6577 / 2142
Сообщения: 43856

Спартанец / Spartan

Год выхода: 2004
Жанр: боевик, триллер, драма, криминал, детектив
Режиссер: Дэвид Мэмет
В ролях: Вэл Килмер, Дерек Люк, Уильям Х. Мэйси, Тиа Тексада, Джереми Кэмпбелл, Боб Дженнингс, Лайонел Марк Смит, Джонни Месснер, Крис ЛаЦентра, Ренато Мано, Марк Фицджералд, Тони Мамет, Кларк Грегг, Рон Батлер, Стивен Калп, Винсент Гуастаферро, Роберт Белла, Лана Билзериан, Аарон Стэнфорд, Энн Морган, Джеффри Пирсон, Софи Люк, Александра Керри, Эндрю Дэволи, Дж.Дж. Джонстон, Наталия Ногулич, Марго Фарли, Эд О’Нил, Рик Леви, Джим Франджионе, Дэнни Хованесян, Норм Комптон, Чино Бинамо, Саид Тагмауи

О фильме:
Законы древней Спарты были суровы: выживал сильнейший! Специальный агент секретной правительственной службы Скотт тому же самому учил рекрутов, которые хотели стать бойцами спецназа, — выживает сильнейший! Выживает тот, кто не раздумывает, когда надо нажать на спусковой крючок, и тот, кто выполняет приказ, не обсуждая его…



Страна: США, Германия
Продолжительность: 01:46:29
Перевод: Профессиональный (дублированный)

Файл
Кодек: XviD
Качество: HDRip
Видео: 672x288, 23.976 fps, 842 Kbps, 0.181 Bits/Pixel
Звук: MP3, 48 KHz, 128 Kbps, 2 channels

Семпл

General
Complete name : D:Spartanec.2004.HDRip.XviD.745mb.avi
Format : AVI
Format/Info : Audio Video Interleave
File size : 746 MiB
Duration : 1h 46mn
Overall bit rate : 979 Kbps
Writing application : VirtualDubMod 1.5.10.2 (build 2540/release)
Writing library : VirtualDubMod build 2540/release
Video
ID : 0
Format : MPEG-4 Visual
Format profile : Advanced Simple@L5
Format settings, BVOP : 2
Format settings, QPel : No
Format settings, GMC : No warppoints
Format settings, Matrix : Default (H.263)
Muxing mode : Packed bitstream
Codec ID : XVID
Codec ID/Hint : XviD
Duration : 1h 46mn
Bit rate : 842 Kbps
Width : 672 pixels
Height : 288 pixels
Display aspect ratio : 2.35:1
Frame rate : 23.976 fps
Color space : YUV
Chroma subsampling : 4:2:0
Bit depth : 8 bits
Scan type : Progressive
Compression mode : Lossy
Bits/(Pixel*Frame) : 0.181
Stream size : 641 MiB (86%)
Writing library : XviD 1.2.1 (UTC 2008-12-04)
Audio
ID : 1
Format : MPEG Audio
Format version : Version 1
Format profile : Layer 3
Codec ID : 55
Codec ID/Hint : MP3
Duration : 1h 46mn
Bit rate mode : Constant
Bit rate : 128 Kbps
Channel(s) : 2 channels
Sampling rate : 48.0 KHz
Compression mode : Lossy
Stream size : 97.5 MiB (13%)
Alignment : Aligned on interleaves
Interleave, duration : 42 ms (1.00 video frame)
Interleave, preload duration : 504 ms
Writing library : LAME3.98r
Encoding settings : -m s -V 4 -q 2 -lowpass 17 -b 128









реклама партнёра


Вернуться к началу
 Профиль Отправить личное сообщение  
 
   Похожие торренты   Автор   Торрент   Размер 
В этой теме нет новых непрочитанных сообщений. Обратная тяга / Backdraft [Боевик, триллер, драма, криминал, детектив, 1991] HDRip, Avo

salma3

23 | 1

1.46 ГБ

В этой теме нет новых непрочитанных сообщений. Ганмен / The Gunman (Пьер Морель) [Боевик, Триллер, Драма, Криминал, Детектив, 2014] HDRip, Avo

Dracon

7936 | 49

1.46 ГБ

В этой теме нет новых непрочитанных сообщений. Сотовый / Cellular [боевик, триллер, криминал, 2004] HDRip-AVC, Dub

salma3

24 | 8

745.37 МБ

В этой теме нет новых непрочитанных сообщений. Кибер / Blackhat (Майкл Манн) [боевик, триллер, драма, криминал, детектив, 2015] HDRip, Dub [Лицензия]

Dracon

651 | 37

1.46 ГБ

В этой теме нет новых непрочитанных сообщений. Убийца / Sicario (Дени Вильнёв) [Боевик, триллер, драма, криминал, детектив, 2015] HDRip, dub [Line]

Dracon

2736 | 89

2.08 ГБ

В этой теме нет новых непрочитанных сообщений. Инферно / Inferno (боевик, триллер, драма, криминал, детектив, приключения, 2016) HDRip от Scarabey | iTunes

marya111

302 | 51

751.99 МБ

В этой теме нет новых непрочитанных сообщений. Ганмен / The Gunman (Пьер Морель) [Боевик, Триллер, Драма, Криминал, Детектив, 2014] HDRip, Dub [iTunes]

Dracon

108 | 5

1.37 ГБ


СообщениеДобавлено: 17 фев 2013, 17:35 

Не в сети
Аватара пользователя
Дата регистрации:
23 ноя 2012, 21:08
Спасибо: 0 / 4
Сообщения: 3
Спасибо ! :)


Вернуться к началу
 Профиль Отправить личное сообщение  
 
Начать новую тему Ответить на тему  [ Сообщений: 2 ] 




Для Мосгорсуда, Роскомнадзора и рекламодателей:: mosgorsud-torrent[собачка]yandex.ru