Торрент файл
скачать торрент магнет ссылка Добавлен: 22 дек 2012, 15:31
Размер: 1.36 ГБ
Сидеров: 11
Личеров: 2
Статус: (Dracon)
Автор

СообщениеДобавлено: 22 дек 2012, 15:31 

Не в сети
Зам. Админа
Аватара пользователя
Дата регистрации:
02 дек 2010, 12:39
Спасибо: 12458 / 214
Сообщения: 27968

    Страна: Грузия
    Жанр: Ужасы, Триллер
    Год выпуска: 2011
  • Продолжительность: 01:27:43
    Перевод: Одноголосый закадровый Доп. инфо о переводе [den904] перевод [Janetta]
    Cубтитры: нет
  • Режиссер:Леван Бахия / Levan Bahia, Бека Жгубурия / Beqa Jguburia
    В ролях: Скаут Тэйлор-Комптон, Трэвис Ван Винкл, Майкл Копон, Кристина Уллоа, Тайлер Мэйн, Michael Andrew, George Dugashvili, Rene Etore, Tornike Gogrichiani, Ibrahim Idowu
    Описание:
    Четверо друзей отправляются в дом на берегу озера, чтобы весело провести выходные… Но уик-энд превращается в настоящий кошмар, когда трое из них оказываются запертыми в горячей сауне. Температура стремительно растёт… Каждая минута дорога в борьбе за выживание…

    Качество видео: HDRip
    Формат видео: AVI
    Исходник BDRip 720p
    Видео: Xvid 720x304 23.976fps 1756 kb/s
  • Аудио: Dolby AC3 48000Hz 6ch 448kbps
MediaInfo
Общее
Полное имя : D:\Торенты\247.Degrees.Fahrenheit.2011.L.HDRip.avi
Формат : AVI
Формат/Информация : Audio Video Interleave
Размер файла : 1,36 Гбайт
Продолжительность : 1 ч. 27 м.
Общий поток : 2214 Кбит/сек
Программа кодирования : VirtualDubMod 1.5.10.2 (build 2540/release)
Библиотека кодирования : VirtualDubMod build 2540/release
Видео
Идентификатор : 0
Формат : MPEG-4 Visual
Профиль формата : Advanced Simple@L5
Параметр BVOP формата : 2
Параметр QPel формата : Нет
Параметр GMC формата : Без точки перехода
Параметр матрицы формата : Default (MPEG)
Идентификатор кодека : XVID
Идентификатор кодека/Подсказка : XviD
Продолжительность : 1 ч. 27 м.
Битрейт : 1756 Кбит/сек
Ширина : 720 пикс.
Высота : 304 пикс.
Соотношение сторон : 2,35:1
Частота кадров : 23,976 кадр/сек
Цветовое пространство : YUV
Подвыборка цветности : 4:2:0
Битовая глубина : 8 бит
Тип развёртки : Прогрессивная
Метод сжатия : С потерями
Бит/(Пиксели*Кадры) : 0.335
Размер потока : 1,08 Гбайт (79%)
Библиотека кодирования : XviD 1.2.1 (UTC 2008-12-04)
Аудио
Идентификатор : 1
Формат : AC-3
Формат/Информация : Audio Coding 3
Расширение режима : CM (complete main)
Идентификатор кодека : 2000
Продолжительность : 1 ч. 27 м.
Вид битрейта : Постоянный
Битрейт : 448 Кбит/сек
Каналы : 6 каналов
Расположение каналов : Front: L C R, Side: L R, LFE
Частота : 48,0 КГц
Битовая глубина : 16 бит
Метод сжатия : С потерями
Размер потока : 281 Мбайт (20%)
Выравнивание : Разделение по промежуткам
Продолжительность промежутка : 42 мс. (1,00 видеокадр)
Время предзагрузки промежутка : 500 ms
Скриншоты


Релиз группа:




реклама партнёра


Вернуться к началу
 Профиль  
 
   Похожие торренты   Автор   Торрент   Размер 
В этой теме нет новых непрочитанных сообщений. 451 градус по Фаренгейту / Fahrenheit 451 [Фантастика, триллер, драма, 1966] BDRip 720р, 4Mvo

salma3

47 | 7

7.29 ГБ

В этой теме нет новых непрочитанных сообщений. Юлия Икс / Julia X [триллер, ужасы, 2011] HDRip, Mvo

salma3

251 | 19

1.46 ГБ

В этой теме нет новых непрочитанных сообщений. Недетские игры / Come Out and Play [триллер, ужасы, 2011] HDRip, Mvo

salma3

117 | 3

1.37 ГБ

В этой теме нет новых непрочитанных сообщений. Близнецы-убийцы / Seconds Apart [ужасы, триллер, 2011] HDRip, Mvo [Лицензия]

salma3

16 | 3

1.45 ГБ

В этой теме нет новых непрочитанных сообщений. Список смертников / Kill List [ужасы, триллер, 2011] HDRip, Mvo

salma3

204 | 28

1.46 ГБ

В этой теме нет новых непрочитанных сообщений. Военные игры / War Games: At the End of the Day [триллер, ужасы, боевик, 2011] HDRip, Mvo [Лицензия]

salma3

29 | 12

1.46 ГБ

В этой теме нет новых непрочитанных сообщений. Скептик / The Skeptic [Ужасы, триллер, 2009] HDRip, Dub

salma3

3 | 1

1.37 ГБ


Начать новую тему Ответить на тему  [ 1 сообщение ] 




Для Мосгорсуда, Роскомнадзора и рекламодателей:: mosgorsud-torrent[собачка]yandex.ru