Торрент файл
скачать торрент магнет ссылка Добавлен: 21 дек 2012, 20:30
Размер: 701.38 МБ
Сидеров: 5
Личеров: 1
Статус: (Dracon)
Автор

СообщениеДобавлено: 21 дек 2012, 20:30 

Не в сети
Зам. Админа
Аватара пользователя
Дата регистрации:
02 дек 2010, 12:39
Спасибо: 12458 / 214
Сообщения: 27968
«20-ти летию «БЕШЕНЫХ ПСОВ» Квентина Тарантино посвящается»



Год выпуска: 2012
Страна: США
Жанр:триллер, криминал
Продолжительность: 01:39:28

Перевод: Профессиональный (дублированный)
Оригинальная аудиодорожка: нет
Субтитры: нет

Режиссер: Керн Сэкстон / Kern Saxton

В ролях: Джеймс Дювал, Ноа Хэтауэй, Энди МакКензи, Майкл Бин, Тони Тодд, Марк Хэмилл, Сонни Чиба, Давид Дастмалчян, Джефф Фэйи, Кортни Палм, Дэнни Трехо...

Роли дублировали: Александр Коврижных, Владимир Антоник, Михаил Георгиу, Диомид Виноградов, Михаил Белякович...

Описание: Налетчик по кличке Фиш провел шесть лет в тюрьме. Все эти шесть лет он молчал о совершенном грабеже и своих четырех подельниках. У ворот тюрьмы, после освобождения, его встречает машина и отвозит в место, где собираются все его бывшие друзья, участники громкого ограбления. На столе, в виде угощения, лежит молодая, обнаженная и красивая девушка с разнообразными видами суши на теле. Девушка кажется полностью безмолвной, обученной молчать и не реагировать на то, что происходит вокруг. Даже, если будет опасно. Матерые преступники начинают выяснять меж собой, куда после ограбления пропали бриллианты на несколько миллионов долларов.





Исходник: DVD5 R5
Тип релиза: DVDRip
Контейнер: AVI

Видео: 640x272 (2.35:1), 25 fps, XviD ~ 848 kbps avg, 0.195 bit/pixel
Аудио: 48 kHz, МР3, 2 ch, 128.00 kbps, русский

Раздача от:

Общее
Полное имя: Sushi.girl.2012.D.DVDRip.700MB.avi
Формат: AVI
Формат/Информация: Audio Video Interleave
Размер файла: 701 Мбайт
Продолжительность: 1 ч. 39 м.
Общий поток: 986 Кбит/сек
Программа кодирования: VirtualDubMod 1.5.10.3 | http://www.virtualdub-fr.org || (build 2550/release)
Библиотека кодирования: VirtualDubMod build 2550/release

Видео
Идентификатор: 0
Формат: MPEG-4 Visual
Профиль формата: Advanced Simple@L5
Параметр BVOP формата: 2
Параметр QPel формата: Нет
Параметр GMC формата: Без точки перехода
Параметр матрицы формата: Default (MPEG)
Режим смешивания: Сжатый битовый поток
Идентификатор кодека: XVID
Идентификатор кодека/Подсказка: XviD
Продолжительность: 1 ч. 39 м.
Битрейт: 848 Кбит/сек
Ширина: 640 пикселей
Высота: 272 пикселя
Соотношение сторон: 2,35:1
Частота кадров: 25,000 кадров/сек
Цветовое пространство: YUV
Субдискретизация насыщенности: 4:2:0
Битовая глубина: 8 бит
Тип развёртки: Прогрессивная
Метод сжатия: С потерями
Бит/(Пиксели*Кадры): 0.195
Размер потока: 603 Мбайт (86%)
Библиотека кодирования: XviD 73

Аудио
Идентификатор: 1
Формат: MPEG Audio
Версия формата: Version 1
Профиль формата: Layer 3
Идентификатор кодека: 55
Идентификатор кодека/Подсказка: MP3
Продолжительность: 1 ч. 39 м.
Вид битрейта: Постоянный
Битрейт: 128 Кбит/сек
Каналы: 2 канала
Частота: 48,0 КГц
Метод сжатия: С потерями
Размер потока: 91,1 Мбайт (13%)
Выравнивание: Соединение по промежуткам
Продолжительность промежутка: 40мс. (1,00 видеокадр)
Время предзагрузки промежутка: 504мс.






реклама партнёра


Вернуться к началу
 Профиль  
 
   Похожие торренты   Автор   Торрент   Размер 
В этой теме нет новых непрочитанных сообщений. Суши гёл / Sushi Girl [триллер, криминал, 2012] BDRip 720p, Dub+Avo

salma3

311 | 17

4.36 ГБ

В этой теме нет новых непрочитанных сообщений. Tribbing To Ecstasy / Тёрка до экстаза (Girl Co. / Girl Co Films) (Rose Red, Sovereign Syre, Nikki Delano, Miss Moretti, Sinn Sage...) [2014 г., Lesbians, All Girl, DVDRip 406p]

killerslava

6 | 3

1.28 ГБ

В этой теме нет новых непрочитанных сообщений. Девушка на фотографиях / The Girl in the Photographs [ужасы, триллер, криминал, 2015] WEBDLRip, Dvo

salma3

35 | 1

1.4 ГБ

В этой теме нет новых непрочитанных сообщений. Девушка в беде / The Girl Is in Trouble [боевик, триллер, криминал, 2015] WEB-DLRip, dvo

Dracon

1070 | 75

1.46 ГБ

В этой теме нет новых непрочитанных сообщений. Девочка по вызову / Call Girl [триллер, драма, 2012] HDRip, Mvo [НТВ+]

salma3

86 | 3

1.46 ГБ

В этой теме нет новых непрочитанных сообщений. Девушка напротив / The Girl Next Door [Драма, криминал, триллер, 2007] BDRip 1080p, Dvo+Avo

salma3

19 | 5

11.91 ГБ

В этой теме нет новых непрочитанных сообщений. Хорошая плохая девчонка / Good Girl, Bad Girl [Боевик, 2006] DVDRip, Mvo

salma3

32 | 4

1.46 ГБ


Начать новую тему Ответить на тему  [ 1 сообщение ] 




Для Мосгорсуда, Роскомнадзора и рекламодателей:: mosgorsud-torrent[собачка]yandex.ru