Торрент файл
скачать торрент магнет ссылка Добавлен: 21 дек 2012, 19:17
Размер: 1.37 ГБ
Сидеров: 0
Личеров: 3
Статус: (salma3)
Автор

СообщениеДобавлено: 21 дек 2012, 19:17 

Не в сети
Супермодератор
Аватара пользователя
Дата регистрации:
15 фев 2012, 16:44
Возраст: 27
Спасибо: 5136 / 2089
Сообщения: 17409

Улица Арлетт, 388 / 388 Arletta Avenue

Год выхода: 2011
Жанр: триллер
Режиссер: Рэндолл Коул
В ролях: Ник Стал, Миа Киршнер, Девон Сава, Аарон Абрамс, Шарлотта Салливан, Криста Бриджес, Грэхэм Эбби, Джерри Ди, Кайл Лэбин, Дэниэл Левек

О фильме:
Неизвестный ведет наблюдение за молодой парой 24 часа в сутки при помощи размещенных в их доме скрытых камер. Вскоре герои начинают подозревать неладное и узнают о слежке. С этого момента кошмар ситуации только нарастает...

Страна: Канада
Продолжительность: 01:26:16
Перевод: Любительский одноголосый [zamez]

Файл
Кодек: XviD
Качество: HDRip
Видео: 720x400 (1.80:1), 23.976 fps, XviD build 50 ~1810 kbps avg, 0.26 bit/pixel
Звук: 48 kHz, AC3 Dolby Digital, 3/2 (L,C,R,l,r) + LFE ch, ~448 kbps
Субтитры: нет

Семпл
Релиз от:


Общее
Полное имя: D:Торенты388.Arletta.Avenue.2011.HDRip.1400MB.avi
Формат: AVI
Формат/Информация: Audio Video Interleave
Размер файла: 1,37 Гбайт
Продолжительность: 1 ч. 26 м.
Общий поток: 2268 Кбит/сек
Программа кодирования: VirtualDubMod 1.5.10.2 (build 2540/release)
Библиотека кодирования: VirtualDubMod build 2540/release

Видео
Идентификатор: 0
Формат: MPEG-4 Visual
Профиль формата: Advanced Simple@L5
Параметр BVOP формата: 2
Параметр QPel формата: Нет
Параметр GMC формата: Без точки перехода
Параметр матрицы формата: Default (MPEG)
Идентификатор кодека: XVID
Идентификатор кодека/Подсказка: XviD
Продолжительность: 1 ч. 26 м.
Битрейт: 1811 Кбит/сек
Ширина: 720 пикселей
Высота: 400 пикселей
Соотношение сторон: 16:9
Частота кадров: 23,976 кадра/сек
Цветовое пространство: YUV
Субдискретизация насыщенности: 4:2:0
Битовая глубина: 8 бит
Тип развёртки: Прогрессивная
Метод сжатия: С потерями
Бит/(Пиксели*Кадры): 0.262
Размер потока: 1,09 Гбайт (80%)
Библиотека кодирования: XviD 1.2.1 (UTC 2008-12-04)

Аудио
Идентификатор: 1
Формат: AC-3
Формат/Информация: Audio Coding 3
Расширение режима: CM (complete main)
Параметр Endianness формата: Big
Идентификатор кодека: 2000
Продолжительность: 1 ч. 26 м.
Вид битрейта: Постоянный
Битрейт: 448 Кбит/сек
Каналы: 6 каналов
Расположение каналов: Front: L C R, Side: L R, LFE
Частота: 48,0 КГц
Битовая глубина: 16 бит
Метод сжатия: С потерями
Размер потока: 276 Мбайт (20%)
Выравнивание: Разделение по промежуткам
Продолжительность промежутка: 42мс. (1,00 видеокадр)
Время предзагрузки промежутка: 500мс.






реклама партнёра


Вернуться к началу
 Профиль Отправить личное сообщение  
 
   Похожие торренты   Автор   Торрент   Размер 
В этой теме нет новых непрочитанных сообщений. Ghost Avenue - Ghost Avenue [2013, Heavy Metal, Hard Rock, MP3]

PriZraK

0 | 1

110 МБ

В этой теме нет новых непрочитанных сообщений. Улица милосердия / Mercy Street [1 сезон: 1-4 серия из 6] [Драма, 2016] HDRip [BaibaKo]

Dracon

1 | 1

2.49 ГБ

В этой теме нет новых непрочитанных сообщений. The Rolling Stones - 2120 South Michigan Avenue (The Unrealesed 1964 Blues Album) [2011, Rock, Blues, MP3]

PriZraK

0 | 1

174.91 МБ

В этой теме нет новых непрочитанных сообщений. Acacia Avenue - Cold [2014, Melodic Rock, MP3]

PriZraK

0 | 1

111.1 МБ

В этой теме нет новых непрочитанных сообщений. Пленник Второй авеню / The Prisoner of Second Avenue [комедия, 1975] DVDRip, Mvo

salma3

18 | 4

1.46 ГБ

В этой теме нет новых непрочитанных сообщений. Story Of The Year - Page Avenue [2003, Punk-Rock, Alternative, MP3]

PriZraK

0 | 1

65.58 МБ

В этой теме нет новых непрочитанных сообщений. На седьмой авеню / On Seventh Avenue [Драма, криминал, 1996] VHSRip, Avo

salma3

1 | 0

1.18 ГБ


Начать новую тему Ответить на тему  [ 1 сообщение ] 




Для Мосгорсуда, Роскомнадзора и рекламодателей:: mosgorsud-torrent[собачка]yandex.ru