Торрент файл
скачать торрент магнет ссылка Добавлен: 21 дек 2012, 19:08
Размер: 1.46 ГБ
Сидеров: 244
Личеров: 7
Статус: (salma3)
Автор

СообщениеДобавлено: 21 дек 2012, 19:08 

Не в сети
Супермодератор
Аватара пользователя
Дата регистрации:
15 фев 2012, 16:44
Возраст: 27
Спасибо: 5146 / 2090
Сообщения: 17514
«20-ти летию «БЕШЕНЫХ ПСОВ» Квентина Тарантино посвящается»
Суши гёл / Sushi Girl

Год выпуска: 2012
Страна: США
Жанр:триллер, криминал
Продолжительность: 01:39:28
Перевод: Профессиональный (дублированный)
Оригинальная аудиодорожка: нет
Субтитры: нет
Режиссер: Керн Сэкстон / Kern Saxton
В ролях: Джеймс Дювал, Ноа Хэтауэй, Энди МакКензи, Тони Тодд, Марк Хэмилл, Сонни Чиба, Давид Дастмалчян, Джефф Фэйи, Кортни Палм, Дэнни Трехо...


Описание: Налетчик по кличке Фиш провел шесть лет в тюрьме. Все эти шесть лет он молчал о совершенном грабеже и своих четырех подельниках. У ворот тюрьмы, после освобождения, его встречает машина и отвозит в место, где собираются все его бывшие друзья, участники громкого ограбления. На столе, в виде угощения, лежит молодая, обнаженная и красивая девушка с разнообразными видами суши на теле. Девушка кажется полностью безмолвной, обученной молчать и не реагировать на то, что происходит вокруг. Даже, если будет опасно. Матерые преступники начинают выяснять меж собой, куда после ограбления пропали бриллианты на несколько миллионов долларов.





Исходник: DVD5 R5
Тип релиза: DVDRip
Контейнер: AVI
Видео: 720x304 (2.35:1), 25 fps, XviD ~ 1640 kbps avg, 0.300 bit/pixel
Аудио: 48 kHz, AC3, 6 ch, 448.00 kbps, русский

Раздача от:
Роли дублировали: Александр Коврижных, Владимир Антоник, Михаил Георгиу, Диомид Виноградов, Михаил Белякович...

Общее
Полное имя: Sushi.gel.2012.D.DVDRip_[Youtracker]_by_avproh.avi
Формат: AVI
Формат/Информация: Audio Video Interleave
Размер файла: 1,46 Гбайт
Продолжительность: 1 ч. 39 м.
Общий поток: 2097 Кбит/сек
Программа кодирования: VirtualDubMod 1.5.10.3 | http://www.virtualdub-fr.org || (build 2550/release)
Библиотека кодирования: VirtualDubMod build 2550/release

Видео
Идентификатор: 0
Формат: MPEG-4 Visual
Профиль формата: Advanced Simple@L5
Параметр BVOP формата: 1
Параметр QPel формата: Нет
Параметр GMC формата: Без точки перехода
Параметр матрицы формата: Выборочная
Идентификатор кодека: XVID
Идентификатор кодека/Подсказка: XviD
Продолжительность: 1 ч. 39 м.
Битрейт: 1640 Кбит/сек
Ширина: 720 пикселей
Высота: 304 пикселя
Соотношение сторон: 2,35:1
Частота кадров: 25,000 кадров/сек
Цветовое пространство: YUV
Субдискретизация насыщенности: 4:2:0
Битовая глубина: 8 бит
Тип развёртки: Прогрессивная
Метод сжатия: С потерями
Бит/(Пиксели*Кадры): 0.300
Размер потока: 1,14 Гбайт (78%)
Библиотека кодирования: XviD 65

Аудио
Идентификатор: 1
Формат: AC-3
Формат/Информация: Audio Coding 3
Расширение режима: CM (complete main)
Параметр Endianness формата: Big
Идентификатор кодека: 2000
Продолжительность: 1 ч. 39 м.
Вид битрейта: Постоянный
Битрейт: 448 Кбит/сек
Каналы: 6 каналов
Расположение каналов: Front: L C R, Side: L R, LFE
Частота: 48,0 КГц
Битовая глубина: 16 бит
Метод сжатия: С потерями
Размер потока: 319 Мбайт (21%)
Выравнивание: Разделение по промежуткам
Продолжительность промежутка: 40мс. (1,00 видеокадр)
Время предзагрузки промежутка: 500мс.






реклама партнёра


Вернуться к началу
 Профиль Отправить личное сообщение  
 
   Похожие торренты   Автор   Торрент   Размер 
В этой теме нет новых непрочитанных сообщений. Суши гёл / Sushi Girl [триллер, криминал, 2012] BDRip 720p, Dub+Avo

salma3

311 | 17

4.36 ГБ

В этой теме нет новых непрочитанных сообщений. Tribbing To Ecstasy / Тёрка до экстаза (Girl Co. / Girl Co Films) (Rose Red, Sovereign Syre, Nikki Delano, Miss Moretti, Sinn Sage...) [2014 г., Lesbians, All Girl, DVDRip 406p]

killerslava

6 | 3

1.28 ГБ

В этой теме нет новых непрочитанных сообщений. Девушка на фотографиях / The Girl in the Photographs [ужасы, триллер, криминал, 2015] WEBDLRip, Dvo

salma3

35 | 1

1.4 ГБ

В этой теме нет новых непрочитанных сообщений. Девушка в беде / The Girl Is in Trouble [боевик, триллер, криминал, 2015] WEB-DLRip, dvo

Dracon

1070 | 75

1.46 ГБ

В этой теме нет новых непрочитанных сообщений. Девочка по вызову / Call Girl [триллер, драма, 2012] HDRip, Mvo [НТВ+]

salma3

86 | 3

1.46 ГБ

В этой теме нет новых непрочитанных сообщений. Девушка напротив / The Girl Next Door [Драма, криминал, триллер, 2007] BDRip 1080p, Dvo+Avo

salma3

19 | 5

11.91 ГБ

В этой теме нет новых непрочитанных сообщений. Хорошая плохая девчонка / Good Girl, Bad Girl [Боевик, 2006] DVDRip, Mvo

salma3

32 | 4

1.46 ГБ


Начать новую тему Ответить на тему  [ 1 сообщение ] 




Для Мосгорсуда, Роскомнадзора и рекламодателей:: mosgorsud-torrent[собачка]yandex.ru