Торрент файл
скачать торрент магнет ссылка Добавлен: 21 дек 2012, 12:46
Размер: 1.52 ГБ
Сидеров: 11
Личеров: 5
Статус: (salma3)
Автор

СообщениеДобавлено: 21 дек 2012, 12:46 

Не в сети
Супермодератор
Аватара пользователя
Дата регистрации:
15 фев 2012, 16:44
Возраст: 28
Спасибо: 6584 / 2144
Сообщения: 44077

Женщина сверху / Woman on Top

Год выхода: 2000
Жанр: мелодрама, комедия
Режиссер: Фина Торрес
В ролях: Пенелопа Круз, Мурило Бенисио, Хэролд Перрино, Марк Фойерстин, Джон Де Ланси, Энн Рэмси, Ана Гэстайер, Элен Гуттман

О фильме:
У жгучей и обворожительной бразильянки Изабеллы Оливейры в жизни все прекрасно. Ее красавец-муж Тонино — владелец процветающего ресторана в Баии, да и сама Изабелла, искусная кулинарка — ведущая кулинарного шоу на бразильском телевидении. Гром прогремел среди ясного неба: Изабелла застает своего мужа в постели с другой женщиной. Не в силах пережить измену Тонино, Изабелла покидает Бразилию и отправляется в Сан-Франциско искать новую работу…



Страна: США
Продолжительность: 01:28:02
Перевод: Профессиональный (многоголосый, закадровый)

Файл
Кодек: MKV
Качество: DVDRip
Видео: 720x 400 (16:9),25,000fps, AVC MPEG-4 (H.264), ~2093 kbps avg, 0.291 bit/pixel
Аудио: 48 kHz, AC3 Dolby Digital, 3/2 (L,C,R,l,r) + LFE ch, ~384 kbps avg


Автор рипа
Общее
Уникальный идентификатор: 187699617908535096474537999507049574690 (0x8D35A1A7E32F4DEC99E219BF852E7122)
Полное имя: G:\TFILE\woman_on_top_[tfile.ru].mkv
Формат: Matroska
Версия формата: Version 2
Размер файла: 1,52 Гбайт
Продолжительность: 1 ч. 28 м.
Общий поток: 2479 Кбит/сек
Дата кодирования: UTC 2012-12-20 22:42:24
Программа кодирования: mkvmerge v5.6.0 ('Kenya Kane') built on Jun 29 2012 15:01:44
Библиотека кодирования: libebml v1.2.3 + libmatroska v1.3.0
Видео
Идентификатор: 1
Формат: AVC
Формат/Информация: Advanced Video Codec
Профиль формата: High@L4.1
Параметр CABAC формата: Да
Параметр ReFrames формата: 4 кадра
Идентификатор кодека: V_MPEG4/ISO/AVC
Продолжительность: 1 ч. 28 м.
Битрейт: 2093 Кбит/сек
Ширина: 720 пикселей
Высота: 400 пикселей
Соотношение сторон: 16:9
Частота кадров: 25,000 кадров/сек
Цветовое пространство: YUV
Субдискретизация насыщенности: 4:2:0
Битовая глубина: 8 бит
Тип развёртки: Прогрессивная
Бит/(Пиксели*Кадры): 0.291
Размер потока: 1,26 Гбайт (83%)
Библиотека кодирования: x264 core 125 r2200 999b753
Настройки программы: cabac=1 / ref=3 / deblock=1:0:0 / analyse=0x3:0x113 / me=hex / subme=7 / psy=1 / psy_rd=1.00:0.00 / mixed_ref=1 / me_range=16 / chroma_me=1 / trellis=1 / 8x8dct=1 / cqm=0 / deadzone=21,11 / fast_pskip=1 / chroma_qp_offset=-2 / threads=6 / lookahead_threads=1 / sliced_threads=0 / nr=0 / decimate=1 / interlaced=0 / bluray_compat=0 / constrained_intra=0 / bframes=3 / b_pyramid=2 / b_adapt=1 / b_bias=0 / direct=3 / weightb=1 / open_gop=0 / weightp=2 / keyint=250 / keyint_min=25 / scenecut=40 / intra_refresh=0 / rc_lookahead=40 / rc=2pass / mbtree=1 / bitrate=2093 / ratetol=1.0 / qcomp=0.60 / qpmin=0 / qpmax=69 / qpstep=4 / cplxblur=20.0 / qblur=0.5 / ip_ratio=1.40 / aq=1:1.00
Default: Да
Forced: Нет
Аудио
Идентификатор: 2
Формат: AC-3
Формат/Информация: Audio Coding 3
Расширение режима: CM (complete main)
Параметр Endianness формата: Big
Идентификатор кодека: A_AC3
Продолжительность: 1 ч. 28 м.
Вид битрейта: Постоянный
Битрейт: 384 Кбит/сек
Каналы: 6 каналов
Расположение каналов: Front: L C R, Side: L R, LFE
Частота: 48,0 КГц
Битовая глубина: 16 бит
Метод сжатия: С потерями
Размер потока: 242 Мбайт (15%)
Default: Да
Forced: Нет






реклама партнёра


Вернуться к началу
 Профиль Отправить личное сообщение  
 
   Похожие торренты   Автор   Торрент   Размер 
В этой теме нет новых непрочитанных сообщений. Фатальная женщина / Смертоносная женщина / Lethal Woman / The Most Dangerous Woman Alive [Триллер, боевик, драма, криминал, 1988] VHSRip, Avo

salma3

95 | 17

706.56 МБ

В этой теме нет новых непрочитанных сообщений. Другая женщина / The Other Woman [мелодрама, комедия, 2014] HDRip, Dub [iPad]

salma3

97 | 9

1.43 ГБ

В этой теме нет новых непрочитанных сообщений. Хорошая женщина / A Good Woman [драма, мелодрама, комедия, 2004] WEB-DLRip 720p, Dvo

salma3

55 | 19

3.99 ГБ

В этой теме нет новых непрочитанных сообщений. Мужчина, женщина и банк / A Man, a Woman and a Bank [комедия, криминал, 1979] DVDRip, Avo

salma3

56 | 3

1.45 ГБ

В этой теме нет новых непрочитанных сообщений. Опасная женщина / A Dangerous Woman [драма, мелодрама, 1993] SATRip, Dvo [НТВ+]

salma3

84 | 44

1.32 ГБ

В этой теме нет новых непрочитанных сообщений. Опасная женщина / A Dangerous Woman [драма, мелодрама, 1993] HDTV 1080i, Dvo

salma3

0 | 0

3.75 ГБ

В этой теме нет новых непрочитанных сообщений. Мужчина и женщина / A Man and A Woman (Ли Юн-ги / Lee Yoon Ki) [2016г., Южная Корея, драма, мелодрама, HDRip] DVO

Alfredovich

17 | 5

1.42 ГБ


Начать новую тему Ответить на тему  [ 1 сообщение ] 




Для Мосгорсуда, Роскомнадзора и рекламодателей:: mosgorsud-torrent[собачка]yandex.ru