Торрент файл
скачать торрент магнет ссылка Добавлен: 20 дек 2012, 10:43
Размер: 929.19 МБ
Сидеров: 0
Личеров: 3
Статус: (Dracon)
Автор

СообщениеДобавлено: 20 дек 2012, 10:43 

Не в сети
Зам. Админа
Аватара пользователя
Дата регистрации:
02 дек 2010, 12:39
Спасибо: 12623 / 214
Сообщения: 28012
Страна: Канада, США
Жанр: Комедия, драма, фантазия
Год выпуска: 2011
Продолжительность: 01:28:09
Перевод: Профессиональный (многоголосый закадровый) SDI Media
Cубтитры: нет
Оригинальная аудиодорожка: английский
Режиссер: Тимоти Бонд / Timothy Bond
В ролях: Дин Кэйн, Рэйчел Блэнчард, Джордж Бьюза, Барри Флэтмэн, Криста Бриджес, Хелен Коллиандер, Дилан Робертс, Алан С. Питерсон, Джо Сильваджио, Майк Питерсен

Описание: Когда Майкл, неудачливый адвокат и отец-одиночка, узнает о том, что самовлюбленный бизнесмен подал в суд на Деда Мороза за то, что тот не приносил ему в детстве тех подарков, которые он хотел получить, он решает защищать его в крупнейшем судебном процессе в истории. Теперь, когда он старается вернуть радость праздника и спасти Рождество с помощью своей дочки и подруги детства Лорен, он, возможно, также найдет смелость вернуть любовь в свою жизнь...



Качество видео: DVB
Формат видео: TS
Видео: AVC 704x576 (4:3) 25.00fps Bit rate 1158 Kbps Bits/(Pixel*Frame) 0.114
Аудио 1: MP2 48000Hz 2ch 128Kbps rus
Аудио 2: MP2 48000Hz 2ch 112Kbps eng
MediaInfo
General
ID : 10 (0xA)
Complete name : D:\Satrip\Фильмы\_Новые\Рождественское разбирательство\Рождественское разбирательство.ts
Format : MPEG-TS
File size : 929 MiB
Duration : 1h 28mn
Overall bit rate : 1 474 Kbps
Video
ID : 1405 (0x57D)
Menu ID : 405 (0x195)
Format : AVC
Format/Info : Advanced Video Codec
Format profile : Main@L3.0
Format settings, CABAC : Yes
Format settings, ReFrames : 3 frames
Codec ID : 27
Duration : 1h 28mn
Bit rate : 1 158 Kbps
Width : 704 pixels
Height : 576 pixels
Display aspect ratio : 4:3
Frame rate : 25.000 fps
Standard : Component
Color space : YUV
Chroma subsampling : 4:2:0
Bit depth : 8 bits
Scan type : Interlaced
Scan order : Top Field First
Bits/(Pixel*Frame) : 0.114
Stream size : 730 MiB (79%)
Color primaries : BT.470-6 System B, BT.470-6 System G, BT.601-6 625, BT.1358 625, BT.1700 625 PAL, BT.1700 625 SECAM
Transfer characteristics : BT.470-6 System B, BT.470-6 System G
Matrix coefficients : BT.470-6 System B, BT.470-6 System G, BT.601-6 625, BT.1358 625, BT.1700 625 PAL, BT.1700 625 SECAM, IEC 61966-2-4 601
Audio #1
ID : 2405 (0x965)
Menu ID : 405 (0x195)
Format : MPEG Audio
Format version : Version 1
Format profile : Layer 2
Codec ID : 4
Duration : 1h 28mn
Bit rate mode : Constant
Bit rate : 128 Kbps
Channel(s) : 2 channels
Sampling rate : 48.0 KHz
Compression mode : Lossy
Delay relative to video : 48ms
Stream size : 80.7 MiB (9%)
Language : Russian




реклама партнёра


Вернуться к началу
 Профиль  
 
   Похожие торренты   Автор   Торрент   Размер 
В этой теме нет новых непрочитанных сообщений. Рождественское желание / Wish For Christmas [Драма, семейный, 2016] DVDRip, Mvo

salma3

195 | 38

1.37 ГБ

В этой теме нет новых непрочитанных сообщений. Это, блин, рождественское чудо / A Merry Friggin' Christmas [комедия, 2014] HDRip, dub [Чистый звук]

Dracon

89 | 10

1.4 ГБ

В этой теме нет новых непрочитанных сообщений. Это, блин, рождественское чудо / A Merry Friggin' Christmas [комедия, 2014] BDRip 720p, dub [Чистый звук]

Dracon

26 | 9

3.98 ГБ

В этой теме нет новых непрочитанных сообщений. Это, блин, рождественское чудо / A Merry Friggin' Christmas [комедия, 2014] BDRip 1080p, dub [Чистый звук]

Dracon

12 | 1

8.97 ГБ

В этой теме нет новых непрочитанных сообщений. Рождество / This Christmas [Комедия, драма, 2007] HDRip-AVC, Mvo+Sub

salma3

13 | 2

2.79 ГБ

В этой теме нет новых непрочитанных сообщений. Рождество Мэйерсов / Almost Christmas [драма, комедия, 2016] WEBRip, Dvo

salma3

243 | 59

1.42 ГБ

В этой теме нет новых непрочитанных сообщений. Рождество Мэйерсов / Almost Christmas [Драма, комедия, 2016] WEB-DLRip 720p, Dvo

salma3

95 | 26

3.22 ГБ


Начать новую тему Ответить на тему  [ 1 сообщение ] 




Для Мосгорсуда, Роскомнадзора и рекламодателей:: mosgorsud-torrent[собачка]yandex.ru