Торрент файл
скачать торрент магнет ссылка Добавлен: 20 дек 2012, 03:46
Размер: 1.46 ГБ
Сидеров: 269
Личеров: 10
Статус: (salma3)
Автор

СообщениеДобавлено: 20 дек 2012, 03:46 

Не в сети
Супермодератор
Аватара пользователя
Дата регистрации:
15 фев 2012, 16:44
Возраст: 27
Спасибо: 5130 / 2089
Сообщения: 17349
=К-9: Рождественские приключения / K9 Adventures: A Christmas Tale

Год выпуска: 2012
Страна: США
Жанр:семейный
Продолжительность: 01:25:31
Перевод: Профессиональный (многоголосый, закадровый)
Оригинальная аудиодорожка: нет
Субтитры: нет
Режиссер: Бен Гурли / Ben Gourley
В ролях: Люк Перри, Тейлор Негрон, Адам Джонсон, Шантель Фландерс, Бренден Уитни, Джэйк Суазо, Cate Ganiere, Ariana Bagley, Braxton Hew-Len, Chloe Richmond...

Описание: Бывший полицейский пес по кличке Скут попадает в беду, но от неминуемой гибели его спасает девочка Кэсси. Подружившись, Скут и Кэсси помогают детскому хору собирать рождественские пожертвования для обездоленных детей. Но однажды, когда они появляются в офисе отца Кэсси, Скут узнает своих обидчиков, которые к тому же оказываются мошенниками и хотят завладеть всеми собранными деньгами. Теперь друзьям предстоит остановить мошенников и спасти Рождественский праздник.


=


Исходник: DVD5 R5
Тип релиза: DVDRip
Контейнер: AVI
Видео: 720x400 (16:9), 25 fps, XviD ~ 2238 kbps avg, 0.311 bit/pixel
Аудио: 48 kHz, AC3, 2 ch, 192.00 kbps, русский

Раздача от:

Общее
Полное имя: K9.Rozhdesvenskie.priklyucheniya.2012.P.DVDRip_[Youtracker]_by_avproh.avi
Формат: AVI
Формат/Информация: Audio Video Interleave
Размер файла: 1,46 Гбайт
Продолжительность: 1 ч. 25 м.
Общий поток: 2439 Кбит/сек
Программа кодирования: VirtualDubMod 1.5.10.3 (build 2550/release)
Библиотека кодирования: VirtualDubMod build 2550/release

Видео
Идентификатор: 0
Формат: MPEG-4 Visual
Профиль формата: Advanced Simple@L5
Параметр BVOP формата: 1
Параметр QPel формата: Нет
Параметр GMC формата: Без точки перехода
Параметр матрицы формата: Выборочная
Идентификатор кодека: XVID
Идентификатор кодека/Подсказка: XviD
Продолжительность: 1 ч. 25 м.
Битрейт: 2238 Кбит/сек
Ширина: 720 пикселей
Высота: 400 пикселей
Соотношение сторон: 16:9
Частота кадров: 25,000 кадров/сек
Цветовое пространство: YUV
Субдискретизация насыщенности: 4:2:0
Битовая глубина: 8 бит
Тип развёртки: Прогрессивная
Метод сжатия: С потерями
Бит/(Пиксели*Кадры): 0.311
Размер потока: 1,34 Гбайт (92%)
Библиотека кодирования: XviD 65

Аудио
Идентификатор: 1
Формат: AC-3
Формат/Информация: Audio Coding 3
Расширение режима: CM (complete main)
Параметр Endianness формата: Big
Идентификатор кодека: 2000
Продолжительность: 1 ч. 25 м.
Вид битрейта: Постоянный
Битрейт: 192 Кбит/сек
Каналы: 2 канала
Расположение каналов: Front: L R
Частота: 48,0 КГц
Битовая глубина: 16 бит
Метод сжатия: С потерями
Размер потока: 117 Мбайт (8%)
Выравнивание: Разделение по промежуткам
Продолжительность промежутка: 40мс. (1,00 видеокадр)
Время предзагрузки промежутка: 500мс.






реклама партнёра


Вернуться к началу
 Профиль Отправить личное сообщение  
 
   Похожие торренты   Автор   Торрент   Размер 
В этой теме нет новых непрочитанных сообщений. Рождественские каникулы / Christmas Vacation [комедия, 1989] BDRip, Mvo

salma3

122 | 11

1.46 ГБ

В этой теме нет новых непрочитанных сообщений. Приключения Чака и друзей / The Adventures of Chuck & Friends / 1-52 из 52 [семейный, 2010] DVDRip, Dub

salma3

17 | 4

7.67 ГБ

В этой теме нет новых непрочитанных сообщений. Рождественские страшилки / A Christmas Horror Story (Грант Харви, Стивен Хобан) [Ужасы, 2015] WEB-DLRip, dvo

Dracon

3239 | 128

1.46 ГБ

В этой теме нет новых непрочитанных сообщений. Ангел по соседству / Christmas Angel [комедия, мелодрама, семейный, 2012] DVDRip, Mvo [НТВ+]

Dracon

184 | 23

1.46 ГБ

В этой теме нет новых непрочитанных сообщений. Вдали от дома: Приключения жёлтого пса / Far from Home: The Adventures of Yellow Do [приключения, семейный, 1995] HDTVRip, Mvo

salma3

116 | 12

1.37 ГБ

В этой теме нет новых непрочитанных сообщений. Приключения кота в сапогах / The Adventures of Puss in Boots [S03] [Мультсериал, комедия, приключения, семейный, 2016] WEBRip, Mvo [NewStudio]

salma3

105 | 32

3.02 ГБ

В этой теме нет новых непрочитанных сообщений. Приключения кота в сапогах / The Adventures of Puss in Boots [S02] [Мультсериал, комедия, приключения, семейный, 2016] WEBRip 720p, Mvo [NewStudio]

salma3

207 | 32

3.96 ГБ


Начать новую тему Ответить на тему  [ 1 сообщение ] 




Для Мосгорсуда, Роскомнадзора и рекламодателей:: mosgorsud-torrent[собачка]yandex.ru