Торрент файл
скачать торрент магнет ссылка Добавлен: 19 дек 2012, 13:06
Размер: 1.48 ГБ
Сидеров: 1
Личеров: 4
Статус: (salma3)
Автор

СообщениеДобавлено: 19 дек 2012, 13:06 

Не в сети
Супермодератор
Аватара пользователя
Дата регистрации:
15 фев 2012, 16:44
Возраст: 27
Спасибо: 5131 / 2089
Сообщения: 17372
Шпионка / Geunyeoreul moreumyeon gancheob

Год выхода: 2004
Жанр: боевик, мелодрама, комедия
Режиссер: Хан-Чун Пак
В ролях: Йонг-Ва Ким, Ю Конг, Санг-Ми Нам

О фильме:
Симпатичная и талантливая шпионка из Северной Кореи Рим Гэ Сун проникла в Южную Корею для выполнения секретной миссии. Ее задача заключается в возвращении Ким Ён Гуна, который решил променять идеи красного мира ради капиталистического строя, кроме того он присвоил деньги, выделенные ему для выполнения своей шпионской миссии.
Рим Гэ Сун, чтобы не привлекать внимания устраивается работать в ресторан быстрого питания Burger-King. Однако из-за того, что по соседству с Burger-King располагается школа, набитая сотнями неудовлетворенных подростков, дело несколько усложняется …



Страна: Корея Южная
Продолжительность: 01:41:27
Перевод: Профессиональный (одноголосый),

Файл
Кодек: MKV
Качество: DVDRip
Видео: 720x 408 (16:9),23,976fps, AVC MPEG-4 (H.264), ~1700 kbps avg, 0.241 bit/pixel
Аудио: 48 kHz, AC3 Dolby Digital, 3/2 (L,C,R,l,r) + LFE ch, ~384 kbps avg


Автор рипа
Общее
Уникальный идентификатор: 255131715491577514591153589076975617294 (0xBFF094C0884BDE67A8B1B533AC9F050E)
Полное имя: G:\TFILE\shpionka_[tfileru].mkv
Формат: Matroska
Версия формата: Version 2
Размер файла: 1,48 Гбайт
Продолжительность: 1 ч. 41 м.
Общий поток: 2086 Кбит/сек
Дата кодирования: UTC 2012-12-18 20:19:12
Программа кодирования: mkvmerge v5.6.0 ('Kenya Kane') built on Jun 29 2012 15:01:44
Библиотека кодирования: libebml v1.2.3 + libmatroska v1.3.0
Видео
Идентификатор: 1
Формат: AVC
Формат/Информация: Advanced Video Codec
Профиль формата: High@L4.1
Параметр CABAC формата: Да
Параметр ReFrames формата: 8 кадров
Идентификатор кодека: V_MPEG4/ISO/AVC
Продолжительность: 1 ч. 41 м.
Битрейт: 1700 Кбит/сек
Ширина: 720 пикселей
Высота: 408 пикселей
Соотношение сторон: 16:9
Частота кадров: 23,976 кадра/сек
Цветовое пространство: YUV
Субдискретизация насыщенности: 4:2:0
Битовая глубина: 8 бит
Тип развёртки: Прогрессивная
Бит/(Пиксели*Кадры): 0.241
Размер потока: 1,18 Гбайт (80%)
Библиотека кодирования: x264 core 125 r2200 999b753
Настройки программы: cabac=1 / ref=8 / deblock=1:-1:-1 / analyse=0x3:0x113 / me=umh / subme=7 / psy=1 / psy_rd=1.00:0.10 / mixed_ref=1 / me_range=16 / chroma_me=1 / trellis=2 / 8x8dct=1 / cqm=0 / deadzone=21,11 / fast_pskip=0 / chroma_qp_offset=-3 / threads=6 / lookahead_threads=1 / sliced_threads=0 / nr=0 / decimate=1 / interlaced=0 / bluray_compat=0 / constrained_intra=0 / bframes=3 / b_pyramid=2 / b_adapt=2 / b_bias=0 / direct=3 / weightb=1 / open_gop=0 / weightp=2 / keyint=250 / keyint_min=23 / scenecut=40 / intra_refresh=0 / rc_lookahead=50 / rc=2pass / mbtree=1 / bitrate=1700 / ratetol=1.0 / qcomp=0.60 / qpmin=0 / qpmax=69 / qpstep=4 / cplxblur=20.0 / qblur=0.5 / vbv_maxrate=17500 / vbv_bufsize=14000 / nal_hrd=none / ip_ratio=1.40 / aq=1:1.00
Default: Да
Forced: Нет
Аудио
Идентификатор: 2
Формат: AC-3
Формат/Информация: Audio Coding 3
Расширение режима: CM (complete main)
Параметр Endianness формата: Big
Идентификатор кодека: A_AC3
Продолжительность: 1 ч. 41 м.
Вид битрейта: Постоянный
Битрейт: 384 Кбит/сек
Каналы: 6 каналов
Расположение каналов: Front: L C R, Side: L R, LFE
Частота: 48,0 КГц
Битовая глубина: 16 бит
Метод сжатия: С потерями
Размер потока: 278 Мбайт (18%)
Default: Да
Forced: Нет






реклама партнёра


Вернуться к началу
 Профиль Отправить личное сообщение  
 
   Похожие торренты   Автор   Торрент   Размер 
В этой теме нет новых непрочитанных сообщений. Шпионка Хэрриэт / Harriet the Spy [комедия, семейный, 1996] DVDRip, Mvo

salma3

4 | 2

1.45 ГБ

В этой теме нет новых непрочитанных сообщений. Шпионки / D.E.B.S. [Боевик, Комедия, Мелодрама, 2004] DVDRip, Mvo

salma3

2 | 2

1.37 ГБ

В этой теме нет новых непрочитанных сообщений. Кольцо дракона / George and the Dragon [Фэнтези, боевик, мелодрама, комедия, приключения, 2004] DVD-5, Mvo+Sub

salma3

0 | 4

4.3 ГБ

В этой теме нет новых непрочитанных сообщений. Идти к своей судьбе / Musafir [Триллер, боевик, мелодрама, 2004] DVDRip-AVC, Mvo+Sub

salma3

7 | 2

1.45 ГБ

В этой теме нет новых непрочитанных сообщений. Микибо и я / Mickybo and Me [Драма, комедия, мелодрама, приключения, 2004] DVDRip, Mvo [НТВ+]

salma3

8 | 3

1.46 ГБ

В этой теме нет новых непрочитанных сообщений. История Золушки / A Cinderella Story [мелодрама, комедия, семейный, 2004] DVDRip, Mvo

salma3

83 | 5

1.37 ГБ

В этой теме нет новых непрочитанных сообщений. Секс в небольшом городе / School for Seduction [Комедия, мелодрама, драма, 2004] DVDRip, Mvo

salma3

53 | 3

1.37 ГБ


Начать новую тему Ответить на тему  [ 1 сообщение ] 




Для Мосгорсуда, Роскомнадзора и рекламодателей:: mosgorsud-torrent[собачка]yandex.ru