Торрент файл
скачать торрент магнет ссылка Добавлен: 19 дек 2012, 11:18
Размер: 1.99 ГБ
Сидеров: 203
Личеров: 15
Статус: (Dracon)
Автор

СообщениеДобавлено: 19 дек 2012, 11:18 

Не в сети
Зам. Админа
Аватара пользователя
Дата регистрации:
02 дек 2010, 12:39
Спасибо: 12623 / 214
Сообщения: 28012

Год выхода: 2012
Жанр: Боевик, комедия, криминал
Режиссер: Бэрри Баттлс
В ролях: Андре Брогер, Клейн Кроуфорд, Дэниэл Кадмор, Трэвис Фиммел, Ева Лонгория, Пол Уэсли, Билли Боб Торнтон, Томас Броди Сэнгстер, Натали Мартинез, Зои Белл

О фильме:
События развернутся вокруг трех братьев, которые всегда любили конфликты и хорошо подраться. Их нанимают для того, чтобы вернуть одной бабушке похищенного паренька-инвалида. Парни входят во вкус и проливают реки чужой крови, в основном похитителей.

Страна: США, Lleju Productions, State Street Pictures
Продолжительность: 01:38:38
Перевод: Любительский (двухголосый закадровый) [den904 и DeadSno] Перевод [Janetta]
Дата релиза: 18.12.2012

Кодек: H.264
Качество: HDRip-AVC
Видео: MPEG-4 AVC, 2000 Кбит/с, 1024x426, 23.976 кадр/с
Звук: Русский, английский (АС3, 6 ch, 448 Кбит/с)


Семпл


Общее
Уникальный идентификатор: 204624090592225668706957187010950795836 (0x99F12A955A8F74C4ACD8DF75E79F123C)
Полное имя: G:фильмыPribrezhnoe.disko.2012.x264.BDRip.(AVC).ExKinoRay.mkv
Формат: Matroska
Версия формата: Version 2
Размер файла: 1,99 Гбайт
Продолжительность: 1 ч. 38 м.
Общий поток: 2895 Кбит/сек
Название фильма: Pribrezhnoe.disko.2012.x264.BDRip.(AVC).ExKinoRay
Дата кодирования: UTC 2012-12-18 15:44:24
Программа кодирования: mkvmerge v4.0.0 ('The Stars were mine') сборка от Jun6 2010 16:18:42
Библиотека кодирования: libebml v1.0.0 + libmatroska v1.0.0

Видео
Идентификатор: 1
Формат: AVC
Формат/Информация: Advanced Video Codec
Профиль формата: High@L4.1
Параметр CABAC формата: Да
Параметр ReFrames формата: 8 кадров
Идентификатор кодека: V_MPEG4/ISO/AVC
Продолжительность: 1 ч. 38 м.
Битрейт: 2000 Кбит/сек
Ширина: 1024 пикселя
Высота: 426 пикселей
Соотношение сторон: 2,40:1
Частота кадров: 23,976 кадра/сек
Цветовое пространство: YUV
Субдискретизация насыщенности: 4:2:0
Битовая глубина: 8 бит
Тип развёртки: Прогрессивная
Бит/(Пиксели*Кадры): 0.191
Размер потока: 1,34 Гбайт (67%)
Заголовок: Rip by Enigma-Vladislav71
Библиотека кодирования: x264 core 92 r1510 33d382a
Настройки программы: cabac=1 / ref=8 / deblock=1:-2:-2 / analyse=0x3:0x133 / me=umh / subme=10 / psy=1 / psy_rd=1.00:0.00 / mixed_ref=1 / me_range=48 / chroma_me=1 / trellis=2 / 8x8dct=1 / cqm=0 / deadzone=21,11 / fast_pskip=0 / chroma_qp_offset=-2 / threads=3 / sliced_threads=0 / nr=0 / decimate=0 / interlaced=0 / constrained_intra=0 / bframes=8 / b_pyramid=2 / b_adapt=2 / b_bias=0 / direct=3 / wpredb=1 / wpredp=2 / keyint=240 / keyint_min=23 / scenecut=40 / intra_refresh=0 / rc=2pass / mbtree=0 / bitrate=2000 / ratetol=1.0 / qcomp=0.60 / qpmin=10 / qpmax=51 / qpstep=4 / cplxblur=20.0 / qblur=0.5 / ip_ratio=1.40 / pb_ratio=1.30 / aq=1:1.00
Язык: English
Default: Да
Forced: Нет

Аудио #1
Идентификатор: 2
Формат: AC-3
Формат/Информация: Audio Coding 3
Расширение режима: CM (complete main)
Идентификатор кодека: A_AC3
Продолжительность: 1 ч. 38 м.
Вид битрейта: Постоянный
Битрейт: 448 Кбит/сек
Каналы: 6 каналов
Расположение каналов: Front: L C R, Side: L R, LFE
Частота: 48,0 КГц
Битовая глубина: 16 бит
Метод сжатия: С потерями
Размер потока: 316 Мбайт (15%)
Язык: Russian
Default: Да
Forced: Нет

Аудио #2
Идентификатор: 3
Формат: AC-3
Формат/Информация: Audio Coding 3
Расширение режима: CM (complete main)
Идентификатор кодека: A_AC3
Продолжительность: 1 ч. 38 м.
Вид битрейта: Постоянный
Битрейт: 448 Кбит/сек
Каналы: 6 каналов
Расположение каналов: Front: L C R, Side: L R, LFE
Частота: 48,0 КГц
Битовая глубина: 16 бит
Метод сжатия: С потерями
Размер потока: 316 Мбайт (15%)
Default: Нет
Forced: Нет

Релиз от:

Авторы релиза:




реклама партнёра


Вернуться к началу
 Профиль  
 
   Похожие торренты   Автор   Торрент   Размер 
В этой теме нет новых непрочитанных сообщений. Мачо и ботан / 21 Jump Street [боевик, комедия, криминал, 2012] HDRip, Dub [iPad]

salma3

18 | 2

1.47 ГБ

В этой теме нет новых непрочитанных сообщений. Грешники и праведники / Outlaws and Angels [триллер, драма, вестерн, 2016] HDRip, Mvo

salma3

93 | 19

2.05 ГБ

В этой теме нет новых непрочитанных сообщений. Грешники и праведники / Outlaws and Angels [триллер, драма, вестерн, 2016] HDRip, Mvo

salma3

109 | 20

1.37 ГБ

В этой теме нет новых непрочитанных сообщений. Грешники и праведники / Outlaws and Angels [триллер, драма, вестерн, 2016] HDRip-AVC, Mvo

salma3

103 | 18

2.21 ГБ

В этой теме нет новых непрочитанных сообщений. Грешники и праведники / Outlaws and Angels (триллер, драма, вестерн, 2016) HDRip от Portablius | L

marya111

149 | 21

746.91 МБ

В этой теме нет новых непрочитанных сообщений. Американские герои / American Outlaws [боевик, вестерн, 2001] WEB-DLRip, Mvo

salma3

178 | 48

1.45 ГБ

В этой теме нет новых непрочитанных сообщений. Американские герои / American Outlaws [боевик, вестерн, 2001] WEB-DL 720p, Dub

salma3

115 | 49

3.21 ГБ


Начать новую тему Ответить на тему  [ 1 сообщение ] 




Для Мосгорсуда, Роскомнадзора и рекламодателей:: mosgorsud-torrent[собачка]yandex.ru