Торрент файл
скачать торрент магнет ссылка Добавлен: 18 дек 2012, 18:32
Размер: 1.46 ГБ
Сидеров: 27
Личеров: 4
Статус: (salma3)
Автор

СообщениеДобавлено: 18 дек 2012, 18:32 

В сети
Супермодератор
Аватара пользователя
Дата регистрации:
15 фев 2012, 16:44
Возраст: 27
Спасибо: 5143 / 2090
Сообщения: 17495
Адская поездка / Hell Ride

Год выхода: 2008
Жанр: боевик, приключения, триллер, драма
Режиссер: Ларри Бишоп
В ролях: Майкл Мэдсен, Деннис Хоппер, Винни Джонс, Эрик Бальфур, Ларри Бишоп, Леонор Варела, Дэвид Кэрредин, Джулия Джонс

О фильме:
Недетская история о байкерских бандах, с пивом, рёвом моторов, обилием женского тела, стрельбы и кровищи.



Страна: США
Продолжительность: 01:23:49
Перевод: Профессиональный (двухголосый)

Файл
Кодек: MKV
Качество: HDRip
Видео: 720x304 (2.35:1), 23.976 fps, AVC (x264), High@L3.0, ~2 068 kbps avg, 0.394 bit/pixel
Аудио: 48 kHz, AC3 Dolby Digital, 3/2 (L,C,R,l,r) + LFE ch, ~448 kbps

General
Unique ID: 248326398334509631308541477184231384285 (0xBAD1ECB61642D4069B7585D9C1C724DD)
Complete name: E:\adsk1.mkv
Format: Matroska
File size: 1.46 GiB
Duration: 1h 23mn
Overall bit rate: 2 489 Kbps
Encoded date: UTC 2008-10-22 04:03:01
Writing application: mkvmerge v2.3.0 ('Freak U') built on Sep8 2008 18:32:16
Writing library: libebml v0.7.7 + libmatroska v0.8.1
Video
ID: 1
Format: AVC
Format/Info: Advanced Video Codec
Format profile: High@L3.0
Format settings, CABAC: Yes
Format settings, ReFrames: 7 frames
Format settings, GOP: N=1
Codec ID: V_MPEG4/ISO/AVC
Duration: 1h 23mn
Bit rate: 2 068 Kbps
Width: 720 pixels
Height: 304 pixels
Display aspect ratio: 2.35:1
Frame rate: 23.976 fps
Color space: YUV
Chroma subsampling: 4:2:0
Bit depth: 8 bits
Scan type: Progressive
Bits/(Pixel*Frame): 0.394
Stream size: 1.17 GiB (80%)
Writing library: x264 core 65 r998M 6768543
Encoding settings: cabac=1 / ref=7 / deblock=1:-4:-4 / analyse=0x3:0x113 / me=hex / subme=6 / psy_rd=1.0:0.0 / mixed_ref=0 / me_range=16 / chroma_me=1 / trellis=1 / 8x8dct=1 / cqm=0 / deadzone=21,11 / chroma_qp_offset=-2 / threads=3 / nr=0 / decimate=1 / mbaff=0 / bframes=2 / b_pyramid=0 / b_adapt=1 / b_bias=0 / direct=2 / wpredb=0 / keyint=250 / keyint_min=25 / scenecut=40(pre) / rc=2pass / bitrate=2068 / ratetol=1.0 / qcomp=0.60 / qpmin=10 / qpmax=51 / qpstep=4 / cplxblur=20.0 / qblur=0.5 / ip_ratio=1.40 / pb_ratio=1.30 / aq=0
Language: English
Audio
ID: 2
Format: AC-3
Format/Info: Audio Coding 3
Mode extension: CM (complete main)
Codec ID: A_AC3
Duration: 1h 23mn
Bit rate mode: Constant
Bit rate: 448 Kbps
Channel(s): 6 channels
Channel positions: Front: L C R, Side: L R, LFE
Sampling rate: 48.0 KHz
Bit depth: 16 bits
Compression mode: Lossy
Stream size: 269 MiB (18%)





реклама партнёра


Вернуться к началу
 Профиль Отправить личное сообщение  
 
   Похожие торренты   Автор   Торрент   Размер 
В этой теме нет новых непрочитанных сообщений. Адская поездка / Hell Ride [Боевик, триллер, драма, 2008] BDRip, Dvo

salma3

13 | 3

1.37 ГБ

В этой теме нет новых непрочитанных сообщений. Совместная поездка / Ride Along [Криминал, Комедия, 2014] HDRip, Dvo

Dracon

533 | 11

1.46 ГБ

В этой теме нет новых непрочитанных сообщений. Совместная поездка / Ride Along [Криминал, Комедия, 2014] HDRip, Dub [iTunes]

Dracon

1409 | 18

1.46 ГБ

В этой теме нет новых непрочитанных сообщений. Совместная поездка / Ride Along [боевик, комедия, 2014] WEB-DL 720p, Avo+Sub

salma3

133 | 4

3.35 ГБ

В этой теме нет новых непрочитанных сообщений. Совместная поездка / Ride Along (Тим Стори) [2014, боевик, комедия, BDRip 720p | Лицензия] Dub

Nickolas3435

1593 | 63

2.46 ГБ

В этой теме нет новых непрочитанных сообщений. Совместная поездка / Ride Along [Криминал, Комедия, 2014] BDRemux, Dvo

Dracon

21 | 11

25.14 ГБ

В этой теме нет новых непрочитанных сообщений. Совместная поездка / Ride Along [Криминал, Комедия, 2014] BDRip 720p, avo

Dracon

50 | 2

4.54 ГБ


Начать новую тему Ответить на тему  [ 1 сообщение ] 




Для Мосгорсуда, Роскомнадзора и рекламодателей:: mosgorsud-torrent[собачка]yandex.ru