Торрент файл
скачать торрент магнет ссылка Добавлен: 17 дек 2012, 20:24
Размер: 2.19 ГБ
Сидеров: 26
Личеров: 3
Статус: (Dracon)
Автор

СообщениеДобавлено: 17 дек 2012, 20:24 

Не в сети
Зам. Админа
Аватара пользователя
Дата регистрации:
02 дек 2010, 12:39
Спасибо: 12461 / 214
Сообщения: 27968

Год выхода: 2012
Жанр:Мелодрама, комедия
Режиссер: Софи Лелуш
В ролях: Элис Тальони, Патрик Брюэль, Марина Дельтерм, Луи-До де Ланкесэ, Мишель Омон, Мари-Кристин Адам, Янник Соулер, Марго Чатели, Арсен Моска, Глэдис Коэн, Джули Мартел, Роман Гюиссе, Джульетт Крух, Пол-Эдуард Гондард, Жак Сирон, Ариан Ках, Кристиан Амери, Хереддин Эннасри, Рафаэль Делуйя, Франсуа Лескурат, Жан-Жак Альберт, Давид Марсе, Мохамед Лахдар, Жером Куе, Кэролайн Гэй, Фредерик Нахмани, Марк Лои, Стефани Потерло, Поль Сола, Вуди Аллен

Сюжет фильма: Алис обожает Вуди Аллена, находя в его фильмах ответы на все вопросы. Но когда в ее жизни появляются двое мужчин, каждый из которых по-своему интересен, фильмография любимого режиссера не помогает сделать правильный выбор кавалера. Тогда Алис и решается спросить у мэтра лично...

Продолжительность: 01:17:26
Перевод: Профессиональный (многоголосый закадровый) [Лицензия]
Выпущено: Франция, Vendôme Production, France 2 Cinéma, SND

Качество: BDRip [720p]
Видео: 1280x688, 3597 Кбит/сек, 24,000 кадр/сек, AVC, x264, 1,860, 0.170 Бит/[Пиксели*Кадры], 2pass
Аудио: AC-3, 448 Кбит/сек, 6 канала(ов), 48,0 КГц
Размер: 2,19 ГБ

Бюджет Фильма: -
Кассовые сборы: -

Релиз от:







Общее
Уникальный идентификатор: 217828410839562325886691198116089765916 (0xA3E039D5B959BCF48E6D0A59822B201C)
Полное имя: A:РаздачиParis-Manhattan.2012.x264.BDRip.720p.MVO.mkv
Формат: Matroska
Версия формата: Version 4 / Version 2
Размер файла: 2,19 Гбайт
Продолжительность: 1 ч. 17 м.
Общий поток: 4045 Кбит/сек
Дата кодирования: UTC 2010-02-22 21:41:31
Программа кодирования: mkvmerge v5.9.0 ('On The Loose') built on Dec9 2012 15:37:01
Библиотека кодирования: libebml v1.3.0 + libmatroska v1.4.0

Видео
Идентификатор: 1
Формат: AVC
Формат/Информация: Advanced Video Codec
Профиль формата: High@L3.1
Параметр CABAC формата: Да
Параметр ReFrames формата: 4 кадра
Идентификатор кодека: V_MPEG4/ISO/AVC
Продолжительность: 1 ч. 17 м.
Битрейт: 3597 Кбит/сек
Ширина: 1280 пикселей
Высота: 688 пикселей
Соотношение сторон: 1,860
Частота кадров: 24,000 кадра/сек
Цветовое пространство: YUV
Субдискретизация насыщенности: 4:2:0
Битовая глубина: 8 бит
Тип развёртки: Прогрессивная
Бит/(Пиксели*Кадры): 0.170
Размер потока: 1,90 Гбайт (87%)
Заголовок: Париж-Манхэттен
Библиотека кодирования: x264 core 129 r2230 1cffe9f
Настройки программы: cabac=1 / ref=3 / deblock=1:0:0 / analyse=0x3:0x113 / me=hex / subme=7 / psy=1 / psy_rd=1.00:0.00 / mixed_ref=1 / me_range=16 / chroma_me=1 / trellis=1 / 8x8dct=1 / cqm=0 / deadzone=21,11 / fast_pskip=1 / chroma_qp_offset=-2 / threads=12 / lookahead_threads=2 / sliced_threads=0 / nr=0 / decimate=1 / interlaced=0 / bluray_compat=0 / constrained_intra=0 / bframes=3 / b_pyramid=2 / b_adapt=1 / b_bias=0 / direct=1 / weightb=1 / open_gop=0 / weightp=2 / keyint=240 / keyint_min=24 / scenecut=40 / intra_refresh=0 / rc_lookahead=40 / rc=2pass / mbtree=1 / bitrate=3597 / ratetol=1.0 / qcomp=0.60 / qpmin=10 / qpmax=51 / qpstep=4 / cplxblur=20.0 / qblur=0.5 / ip_ratio=1.40 / aq=1:1.00
Язык: English
Default: Да
Forced: Нет

Аудио
Идентификатор: 2
Формат: AC-3
Формат/Информация: Audio Coding 3
Расширение режима: CM (complete main)
Идентификатор кодека: A_AC3
Продолжительность: 1 ч. 17 м.
Вид битрейта: Постоянный
Битрейт: 448 Кбит/сек
Каналы: 6 каналов
Расположение каналов: Front: L C R, Side: L R, LFE
Частота: 48,0 КГц
Битовая глубина: 16 бит
Метод сжатия: С потерями
Размер потока: 248 Мбайт (11%)
Заголовок: Профессиональный многоголосый
Язык: Russian
Default: Да
Forced: Нет




реклама партнёра


Вернуться к началу
 Профиль  
 
   Похожие торренты   Автор   Торрент   Размер 
В этой теме нет новых непрочитанных сообщений. Париж любой ценой / Paris à tout prix [Комедия, 2013] BDRip 720p, Dub [Лицензия]

Dracon

75 | 3

4.61 ГБ

В этой теме нет новых непрочитанных сообщений. Не видать нам Париж, как своих ушей / We'll Never Have Paris (Саймон Хелберг, Жослин Таун) [мелодрама, комедия, 2014] BDRip 720p, dub [чистый звук]

Dracon

427 | 29

4.49 ГБ

В этой теме нет новых непрочитанных сообщений. Париж, я люблю тебя / Paris, je t'aime [мелодрама, комедия, 2006] BDRip, Mvo

salma3

39 | 5

2.18 ГБ

В этой теме нет новых непрочитанных сообщений. Прощай, Париж / Adieu Paris [драма, 2013] BDRip 720p, Mvo [НТВ+]

Dracon

30 | 5

4.5 ГБ

В этой теме нет новых непрочитанных сообщений. Не видать нам Париж, как своих ушей / We'll Never Have Paris (Саймон Хелберг, Жослин Таун) [мелодрама, комедия, 2014] BDRip 1080p, dub [чистый звук]

Dracon

47 | 5

7.78 ГБ

В этой теме нет новых непрочитанных сообщений. Париж любой ценой / Paris à tout prix [Комедия, 2013] HDRip, Dub [Лицензия]

Dracon

399 | 9

1.46 ГБ

В этой теме нет новых непрочитанных сообщений. Париж любой ценой / Paris à tout prix [Комедия, 2013] Blu-ray Remux 1080p, Dub+Sub [Лицензия]

salma3

11 | 5

24.63 ГБ


Начать новую тему Ответить на тему  [ 1 сообщение ] 




Для Мосгорсуда, Роскомнадзора и рекламодателей:: mosgorsud-torrent[собачка]yandex.ru