Торрент файл
скачать торрент магнет ссылка Добавлен: 17 дек 2012, 13:18
Размер: 743.41 МБ
Сидеров: 37
Личеров: 2
Статус: (salma3)
Автор

СообщениеДобавлено: 17 дек 2012, 13:18 

Не в сети
Супермодератор
Аватара пользователя
Дата регистрации:
15 фев 2012, 16:44
Возраст: 28
Спасибо: 6590 / 2145
Сообщения: 44156

Кошелек или жизнь / Trick 'r Treat

Год выхода: 2008
Жанр: ужасы, триллер, комедия, драма
Режиссер: Майкл Догерти
В ролях: Куинн Лорд, Брайан Кокс, Дилан Бейкер, Лесли Бибб, Рошелль Эйтс, Анна Пакуин, Монека Делэйн, Тамох Пеникетт, Лоурен Ли Смит, Бритт МакКилип

О фильме:
В четырех пересекающихся друг с другом историях герои нарушают традиции Хэллоуина, наживая себе большие неприятности. Мы познакомимся с учителем, на деле являющимся серийным убийцей; девственницей-студенткой, ждущей своего принца; семейной парой, в которой муж обожает День Всех Святых, а жена не разделяет его восторгов; и группой подростков, задумавших жестокий розыгрыш...



Страна: США
Продолжительность: 01:22:21
Перевод: Профессиональный (дублированный)

Файл
Кодек: XviD
Качество: HDRip
Видео: 688x288, 23.976 fps, 1 125 Kbps, 0.237 Bits/Pixel
Звук: MP3, 48.0 KHz, 128 Kbps, 2 channels
Семпл
Format: AVI
Format/Info: Audio Video Interleave
File size: 743 MiB
Duration: 1h 22mn
Overall bit rate: 1 262 Kbps
Writing application: VirtualDubMod 1.5.10.2 (build 2540/release)
Writing library: VirtualDubMod build 2540/release

Video
ID: 0
Format: MPEG-4 Visual
Format profile: Advanced Simple@L5
Format settings, BVOP: 2
Format settings, QPel: No
Format settings, GMC: No warppoints
Format settings, Matrix: Default (H.263)
Muxing mode: Packed bitstream
Codec ID: XVID
Codec ID/Hint: XviD
Duration: 1h 22mn
Bit rate: 1 125 Kbps
Width: 688 pixels
Height: 288 pixels
Display aspect ratio: 2.40:1
Frame rate: 23.976 fps
Color space: YUV
Chroma subsampling: 4:2:0
Bit depth: 8 bits
Scan type: Progressive
Compression mode: Lossy
Bits/(Pixel*Frame): 0.237
Stream size: 663 MiB (89%)
Writing library: XviD 1.2.1 (UTC 2008-12-04)

Audio
ID: 1
Format: MPEG Audio
Format version: Version 1
Format profile: Layer 3
Codec ID: 55
Codec ID/Hint: MP3
Duration: 1h 22mn
Bit rate mode: Constant
Bit rate: 128 Kbps
Channel(s): 2 channels
Sampling rate: 48.0 KHz
Compression mode: Lossy
Stream size: 75.4 MiB (10%)
Alignment: Aligned on interleaves
Interleave, duration: 42 ms (1.00 video frame)
Interleave, preload duration: 504 ms
Writing library: LAME3.98r
Encoding settings: -m s -V 4 -q 2 -lowpass 17 -b 128





реклама партнёра


Вернуться к началу
 Профиль Отправить личное сообщение  
 
   Похожие торренты   Автор   Торрент   Размер 
В этой теме нет новых непрочитанных сообщений. Конфеты или смерть / Trick or Treat [ужасы, комедия, музыка, 1986] BDRip 1080p, Dvo+Sub

salma3

94 | 75

8.48 ГБ

В этой теме нет новых непрочитанных сообщений. [StepMomLessons.com / Babes.com] Dana DeArmond, Khloe Kapri - Trick or Treat (28.10.2017) [Threesome, FFM, Cum Swap, Big Tits, All Sex]

salma3

29 | 10

342.72 МБ

В этой теме нет новых непрочитанных сообщений. [StepSiblingsCaught.com / Nubiles-Porn.com] Alex More, Cadey Mercury - Trick Or Treat (26.10.2017) [Girl-Girl-Boy, Creampie, Small Boobs, Brunette, Short hair, Panties, Hardcore, Petite, Blowjob, Facial, Handjob, Girl Orgasm, POV, Deep Thro

salma3

38 | 13

490.13 МБ

В этой теме нет новых непрочитанных сообщений. Зимние мертвецы / Killer Movie [ужасы, триллер, комедия, 2008] HDRip, Dvo

salma3

107 | 29

1.36 ГБ

В этой теме нет новых непрочитанных сообщений. Остановившаяся жизнь / Still Life [драма, комедия, 2013] HDRip, Dvo

salma3

253 | 61

1.45 ГБ

В этой теме нет новых непрочитанных сообщений. Вторая жизнь Уве / En man som heter Ove [драма, комедия, 2015] HDRip, Dub [чистый звук]

salma3

2393 | 140

1.37 ГБ

В этой теме нет новых непрочитанных сообщений. Он никогда не умирал / He Never Died [ужасы, триллер, драма, комедия, 2015] HDRip-AVC, Mvo

salma3

221 | 33

744.34 МБ


Начать новую тему Ответить на тему  [ 1 сообщение ] 




Для Мосгорсуда, Роскомнадзора и рекламодателей:: mosgorsud-torrent[собачка]yandex.ru