Торрент файл
скачать торрент магнет ссылка Добавлен: 16 дек 2012, 16:44
Размер: 2.9 ГБ
Сидеров: 56
Личеров: 3
Статус: (Dracon)
Автор

СообщениеДобавлено: 16 дек 2012, 16:44 

Не в сети
Зам. Админа
Аватара пользователя
Дата регистрации:
02 дек 2010, 12:39
Спасибо: 12623 / 214
Сообщения: 28012

Год выхода: 2012
Жанр:фантастика, боевик, триллер, криминал
Режиссер: Райан Джонсон
В ролях: Джозеф Гордон-Левитт, Брюс Уиллис, Эмили Блант, Джефф Дэниелс, Ной Сеган, Пирс Гэнон, Пол Дано, Пайпер Перабо, Квинг Ксу, Трейси Томс

О фильме:
В недалеком будущем, где стали возможны путешествия во времени, некая корпорация убирает нежелательных людей, отправляя их в прошлое в пластиковых пакетах. Задача принимающей стороны - убить жертву, стерев тем самым несчастного из истории. Все идет гладко до тех пор, пока главный герой не распаковывает очередной пакет, обнаруживая в нем... самого себя из будущего.

«В плену будущего. В плену прошлого»



Релиз от -
Автор рипа: MOSFET

Выпущено: США, Китай
Продолжительность: 01:58:53
Перевод: Профессиональный (полное дублирование) + Оригинальная звуковая дорожка
Субтитры: Русские (Groby), английские, английские (SDH) (*.srt, отключаемые)

Формат: MKV
Качество: BDRip-AVC (источник: HDClub / Blu-Ray Remux / 1080p)
Видео: 1024x436 (2.35:1), 23.976 fps, x264@L4.1, 2pass, ~2596 kbps avg, 0.24 bit/pixel
Аудио #1: 48 kHz, AC3, 3/2 (L,C,R,l,r) + LFE ch, ~448.00 kbps avg (RUS)
Аудио #2: 48 kHz, AC3, 3/2 (L,C,R,l,r) + LFE ch, ~448.00 kbps avg (ENG)
Размер: 2965,51 mb (2/3 DVD)
Скачать: Сэмпл

Полное имя: Petlya.vremeni.2012.DUAL.BDRip-AVC.x264.AC3.-HQCLUB.mkv
Формат: Matroska
Версия формата: Version 4 / Version 2
Размер файла: 2,90 Гбайт
Продолжительность: 1 ч. 58 м.
Общий поток: 3487 Кбит/сек
Дата кодирования: UTC 2010-02-22 21:41:31
Программа кодирования: mkvmerge v5.9.0 ('On The Loose') built on Dec9 2012 15:37:01
Библиотека кодирования: libebml v1.3.0 + libmatroska v1.4.0

Видео
Идентификатор: 1
Формат: AVC
Формат/Информация: Advanced Video Codec
Профиль формата: High@L4.1
Параметр CABAC формата: Да
Параметр ReFrames формата: 9 кадров
Идентификатор кодека: V_MPEG4/ISO/AVC
Продолжительность: 1 ч. 58 м.
Битрейт: 2596 Кбит/сек
Ширина: 1024 пикселя
Высота: 436 пикселей
Соотношение сторон: 2,35:1
Режим частоты кадров: Постоянный
Частота кадров: 23,976 кадра/сек
Цветовое пространство: YUV
Субдискретизация насыщенности: 4:2:0
Битовая глубина: 8 бит
Тип развёртки: Прогрессивная
Бит/(Пиксели*Кадры): 0.243
Размер потока: 2,09 Гбайт (72%)
Заголовок: Петля времени / Looper (2012) BDRip-AVC by MOSFET | HQCLUB.NET
Библиотека кодирования: x264 core 125 r2200 999b753
Настройки программы: cabac=1 / ref=9 / deblock=1:-2:-2 / analyse=0x3:0x113 / me=esa / subme=10 / psy=1 / psy_rd=1.00:0.00 / mixed_ref=1 / me_range=64 / chroma_me=1 / trellis=2 / 8x8dct=1 / cqm=0 / deadzone=21,11 / fast_pskip=0 / chroma_qp_offset=-2 / threads=12 / lookahead_threads=2 / sliced_threads=0 / nr=0 / decimate=1 / interlaced=0 / bluray_compat=0 / constrained_intra=0 / bframes=14 / b_pyramid=2 / b_adapt=2 / b_bias=0 / direct=3 / weightb=1 / open_gop=0 / weightp=2 / keyint=240 / keyint_min=23 / scenecut=40 / intra_refresh=0 / rc_lookahead=50 / rc=2pass / mbtree=1 / bitrate=2596 / ratetol=1.0 / qcomp=0.70 / qpmin=0 / qpmax=69 / qpstep=4 / cplxblur=20.0 / qblur=0.5 / vbv_maxrate=50000 / vbv_bufsize=62500 / nal_hrd=none / ip_ratio=1.40 / aq=1:0.80
Язык: English
Default: Да
Forced: Нет

Аудио #1
Идентификатор: 2
Формат: AC-3
Формат/Информация: Audio Coding 3
Расширение режима: CM (complete main)
Параметр Endianness формата: Big
Идентификатор кодека: A_AC3
Продолжительность: 1 ч. 58 м.
Вид битрейта: Постоянный
Битрейт: 448 Кбит/сек
Каналы: 6 каналов
Расположение каналов: Front: L C R, Side: L R, LFE
Частота: 48,0 КГц
Битовая глубина: 16 бит
Метод сжатия: С потерями
Размер потока: 381 Мбайт (13%)
Заголовок: Профессиональный (полное дублирование)
Язык: Russian
Default: Да
Forced: Нет

Аудио #2
Идентификатор: 3
Формат: AC-3
Формат/Информация: Audio Coding 3
Расширение режима: CM (complete main)
Параметр Endianness формата: Big
Идентификатор кодека: A_AC3
Продолжительность: 1 ч. 58 м.
Вид битрейта: Постоянный
Битрейт: 448 Кбит/сек
Каналы: 6 каналов
Расположение каналов: Front: L C R, Side: L R, LFE
Частота: 48,0 КГц
Битовая глубина: 16 бит
Метод сжатия: С потерями
Размер потока: 381 Мбайт (13%)
Заголовок: Оригинальная звуковая дорожка
Язык: English
Default: Нет
Forced: Нет

Текст #1
Идентификатор: 4
Формат: UTF-8
Идентификатор кодека: S_TEXT/UTF8
Идентификатор кодека/Информация: UTF-8 Plain Text
Заголовок: Русские
Язык: Russian
Default: Нет
Forced: Нет

Текст #2
Идентификатор: 5
Формат: UTF-8
Идентификатор кодека: S_TEXT/UTF8
Идентификатор кодека/Информация: UTF-8 Plain Text
Заголовок: Английские
Язык: English
Default: Нет
Forced: Нет

Текст #3
Идентификатор: 6
Формат: UTF-8
Идентификатор кодека: S_TEXT/UTF8
Идентификатор кодека/Информация: UTF-8 Plain Text
Заголовок: Английские (SDH)
Язык: English
Default: Нет
Forced: Нет

Меню
00:00:00.000: en:00:00:00.000
00:07:27.447: en:00:07:27.447
00:13:31.686: en:00:13:31.686
00:21:22.490: en:00:21:22.490
00:26:48.106: en:00:26:48.106
00:31:51.201: en:00:31:51.201
00:41:28.403: en:00:41:28.403
00:49:33.429: en:00:49:33.429
00:54:10.414: en:00:54:10.414
01:00:35.006: en:01:00:35.006
01:08:09.919: en:01:08:09.919
01:15:23.352: en:01:15:23.352
01:23:57.741: en:01:23:57.741
01:34:25.869: en:01:34:25.869
01:41:04.433: en:01:41:04.433
01:46:29.383: en:01:46:29.383
---[NoImage] x264 [info]: frame I:1525Avg QP:14.62size: 75816
---[NoImage] x264 [info]: frame P:31619 Avg QP:16.13size: 27538
---[NoImage] x264 [info]: frame B:137880 Avg QP:18.40size:9592

---[NoImage] x264 [info]: consecutive B-frames:2.0%2.0%4.8%9.0% 15.0% 39.0%7.8%2.6%3.0%1.5%2.3%4.2%2.5%2.6%1.6%

---[NoImage] x264 [info]: ref P L0: 43.5%7.3% 20.2%7.8%6.9%4.7%4.4%2.4%2.5%0.3%0.0%
---[NoImage] x264 [info]: ref B L0: 59.1% 16.5%9.7%5.2%3.9%3.4%1.7%0.5%
---[NoImage] x264 [info]: ref B L1: 87.8% 12.2%




реклама партнёра


Вернуться к началу
 Профиль  
 
   Похожие торренты   Автор   Торрент   Размер 
В этой теме нет новых непрочитанных сообщений. Сингапурская петля / Петля затягивается в Сингапуре / Singapore Sling [триллер, драма, 1993] VHSRip, Avo+Sub

salma3

3 | 1

1.37 ГБ

В этой теме нет новых непрочитанных сообщений. Петля / Hurok [фантастика, триллер, криминал, 2016] WEB-DLRip, Mvo

salma3

1023 | 193

1.36 ГБ

В этой теме нет новых непрочитанных сообщений. Преступник / Criminal [фантастика, боевик, триллер, 2016] BDRip-AVC, Dub+Sub [лицензия]

salma3

59 | 38

2.18 ГБ

В этой теме нет новых непрочитанных сообщений. Преступник / Criminal [фантастика, боевик, триллер, 2016] BDRip, Dub [лицензия]

salma3

192 | 108

1.46 ГБ

В этой теме нет новых непрочитанных сообщений. Дэдпул / Deadpool [Фантастика, боевик, триллер, 2016] BDRip-AVC, Dub [Лицензия]

salma3

446 | 27

745.76 МБ

В этой теме нет новых непрочитанных сообщений. Преступник / Criminal [фантастика, боевик, триллер, 2016] BDRip-AVC, Dub+Sub [лицензия]

salma3

53 | 41

1.45 ГБ

В этой теме нет новых непрочитанных сообщений. Преступник / Criminal [Фантастика, боевик, триллер, 2016] BDRip 720p, Dub+Sub [Лицензия]

salma3

204 | 34

6.86 ГБ


Начать новую тему Ответить на тему  [ 1 сообщение ] 




Для Мосгорсуда, Роскомнадзора и рекламодателей:: mosgorsud-torrent[собачка]yandex.ru