Торрент файл
скачать торрент магнет ссылка Добавлен: 16 дек 2012, 01:59
Размер: 746.1 МБ
Сидеров: 73
Личеров: 4
Статус: (salma3)
Автор

СообщениеДобавлено: 16 дек 2012, 01:59 

В сети
Супермодератор
Аватара пользователя
Дата регистрации:
15 фев 2012, 16:44
Возраст: 27
Спасибо: 5135 / 2089
Сообщения: 17405

Большой Стэн / Big Stan

Год выхода: 2007
Жанр: комедия
Режиссер: Роб Шнайдер
В ролях: Роб Шнайдер, Дэвид Кэррадайн, М. Эммет Уолш, Саймон Ри, Рэнди Кутюр, Боб Сапп, Биг Спенс, Скотт Уилсон, Цуёши Абе, Т.Дж. Амато

О фильме:
Стэн в панике – его ждет срок за мошенничество. И его очень пугает надвигающееся тюремное заключение. Чтобы обезопасить себя от разного рода неожиданностей, Стэн обращается за помощью к Мастеру боевых искусств, который сможет научить его паре приемов.



Страна: CША
Продолжительность: 01:49:06
Перевод: Профессиональный (дублированный)

Файл
Кодек: XviD
Качество: HDRip
Видео: 688x368, 23.976 fps, 819 Kbps, 0.135 Bits/Pixel
Звук: MP3, 48 KHz, 128 Kbps, 2 channels

Семпл
Format: AVI
Format/Info: Audio Video Interleave
File size: 746 MiB
Duration: 1h 49mn
Overall bit rate: 956 Kbps
Writing application: VirtualDubMod 1.5.10.2 (build 2540/release)
Writing library: VirtualDubMod build 2540/release

Video
ID: 0
Format: MPEG-4 Visual
Format profile: Advanced Simple@L5
Format settings, BVOP: 2
Format settings, QPel: No
Format settings, GMC: No warppoints
Format settings, Matrix: Default (H.263)
Muxing mode: Packed bitstream
Codec ID: XVID
Codec ID/Hint: XviD
Duration: 1h 49mn
Bit rate: 819 Kbps
Width: 688 pixels
Height: 368 pixels
Display aspect ratio: 1.870
Frame rate: 23.976 fps
Color space: YUV
Chroma subsampling: 4:2:0
Bit depth: 8 bits
Scan type: Progressive
Compression mode: Lossy
Bits/(Pixel*Frame): 0.135
Stream size: 639 MiB (86%)
Writing library: XviD 1.2.1 (UTC 2008-12-04)

Audio
ID: 1
Format: MPEG Audio
Format version: Version 1
Format profile: Layer 3
Codec ID: 55
Codec ID/Hint: MP3
Duration: 1h 49mn
Bit rate mode: Constant
Bit rate: 128 Kbps
Channel(s): 2 channels
Sampling rate: 48.0 KHz
Compression mode: Lossy
Stream size: 99.9 MiB (13%)
Alignment: Aligned on interleaves
Interleave, duration: 42 ms (1.00 video frame)
Interleave, preload duration: 504 ms
Writing library: LAME3.98r
Encoding settings: -m s -V 4 -q 2 -lowpass 17 -b 128





реклама партнёра


Вернуться к началу
 Профиль Отправить личное сообщение  
 
   Похожие торренты   Автор   Торрент   Размер 
В этой теме нет новых непрочитанных сообщений. Стэн против сил зла / Stan Against Evil [S01] [Ужасы, комедия, 2016] WEB-DL 720p, Mvo [NewStudio]

salma3

91 | 41

5.81 ГБ

В этой теме нет новых непрочитанных сообщений. Стэн против сил зла / Stan Against Evil [S01] [Ужасы, комедия, 2016] WEB-DLRip, Mvo [NewStudio]

salma3

275 | 123

2.34 ГБ

В этой теме нет новых непрочитанных сообщений. Стэн против сил зла / Stan Against Evil [01x01-06 из 08] (2016) WEB-DLRip | NewStudio

marya111

25 | 9

1.76 ГБ

В этой теме нет новых непрочитанных сообщений. Стэн против сил зла / Stan Against Evil [01x01-06 из 08] (2016) WEB-DL 720p | NewStudio

marya111

17 | 6

4.36 ГБ

В этой теме нет новых непрочитанных сообщений. Stan Bush & Barrage - Stan Bush & Barrage [Rock Candy Remaster] [2013, Melodic Rock, MP3]

PriZraK

3 | 2

105.25 МБ

В этой теме нет новых непрочитанных сообщений. Stan Bush - The Ultimate [2014, Melodic Rock, MP3]

PriZraK

2 | 2

106.68 МБ

В этой теме нет новых непрочитанных сообщений. Аллан Коул, Кристофер Банч - Цикл «СТЭН» (6 аудиокниг) [HANTER-45, 2010-2012,Боевая фантастика 128-160 kbps]

Magnatik

18 | 4

3.77 ГБ


Начать новую тему Ответить на тему  [ 1 сообщение ] 




Для Мосгорсуда, Роскомнадзора и рекламодателей:: mosgorsud-torrent[собачка]yandex.ru