Торрент файл
скачать торрент магнет ссылка Добавлен: 14 дек 2012, 20:48
Размер: 2.19 ГБ
Сидеров: 16
Личеров: 4
Статус: (Dracon)
Автор

СообщениеДобавлено: 14 дек 2012, 20:48 

Не в сети
Зам. Админа
Аватара пользователя
Дата регистрации:
02 дек 2010, 12:39
Спасибо: 12458 / 214
Сообщения: 27968

Год выхода: 2011
Жанр:комедия
Режиссер: Джим Филд Смит
В ролях: Дженнифер Гарнер, Тай Бурелл, Оливия Уайлд, Роб Кордри, Эшли Грин, Алисия Сильверстоун, Хью Джекман, Кристен Шааль, Прюитт Тэйлор Винс, Филлис Смит

Сюжет фильма: В фильме переплетено несколько сюжетных линий, отчаянный юмор о сексе и политике, и… много скульптур из сливочного масла.

Продолжительность: 01:30:32
Перевод: Профессиональный (многоголосый закадровый) [Лицензия]
Выпущено: Michael De Luca Productions, Vandalia Films, Weinstein Company (США)

Качество: BDRip [720p]
Видео: 1280x544, 3011 Кбит/сек, 23,976 кадр/сек, AVC, x264, 2,35:1, 0.180 Бит/[Пиксели*Кадры], 2pass
Аудио: AC-3, 448 Кбит/сек, 6 канала(ов), 48,0 КГц
Размер: 2,19 ГБ

Бюджет Фильма: -
Кассовые сборы: $175 706

Релиз от:








Общее
Уникальный идентификатор: 179474872624262816841155390621125819475 (0x87059A67B98E559A8045A81F2125BC53)
Полное имя: A:РаздачиButter.2011.x264.BDRip.720p.MVO.mkv
Формат: Matroska
Версия формата: Version 4 / Version 2
Размер файла: 2,19 Гбайт
Продолжительность: 1 ч. 30 м.
Общий поток: 3459 Кбит/сек
Дата кодирования: UTC 2010-02-22 21:41:31
Программа кодирования: mkvmerge v5.9.0 ('On The Loose') built on Dec9 2012 15:37:01
Библиотека кодирования: libebml v1.3.0 + libmatroska v1.4.0

Видео
Идентификатор: 1
Формат: AVC
Формат/Информация: Advanced Video Codec
Профиль формата: High@L3.1
Параметр CABAC формата: Да
Параметр ReFrames формата: 4 кадра
Идентификатор кодека: V_MPEG4/ISO/AVC
Продолжительность: 1 ч. 30 м.
Битрейт: 3011 Кбит/сек
Ширина: 1280 пикселей
Высота: 544 пикселя
Соотношение сторон: 2,35:1
Соотношение сторон в оригинале: 2,35:1
Частота кадров: 23,976 кадра/сек
Цветовое пространство: YUV
Субдискретизация насыщенности: 4:2:0
Битовая глубина: 8 бит
Тип развёртки: Прогрессивная
Бит/(Пиксели*Кадры): 0.180
Размер потока: 1,86 Гбайт (85%)
Заголовок: Как по маслу
Библиотека кодирования: x264 core 129 r2230 1cffe9f
Настройки программы: cabac=1 / ref=3 / deblock=1:0:0 / analyse=0x3:0x113 / me=hex / subme=7 / psy=1 / psy_rd=1.00:0.00 / mixed_ref=1 / me_range=16 / chroma_me=1 / trellis=1 / 8x8dct=1 / cqm=0 / deadzone=21,11 / fast_pskip=1 / chroma_qp_offset=-2 / threads=12 / lookahead_threads=2 / sliced_threads=0 / nr=0 / decimate=1 / interlaced=0 / bluray_compat=0 / constrained_intra=0 / bframes=3 / b_pyramid=2 / b_adapt=1 / b_bias=0 / direct=1 / weightb=1 / open_gop=0 / weightp=2 / keyint=240 / keyint_min=23 / scenecut=40 / intra_refresh=0 / rc_lookahead=40 / rc=2pass / mbtree=1 / bitrate=3011 / ratetol=1.0 / qcomp=0.60 / qpmin=10 / qpmax=51 / qpstep=4 / cplxblur=20.0 / qblur=0.5 / ip_ratio=1.40 / aq=1:1.00
Язык: English
Default: Да
Forced: Нет

Аудио
Идентификатор: 2
Формат: AC-3
Формат/Информация: Audio Coding 3
Расширение режима: CM (complete main)
Идентификатор кодека: A_AC3
Продолжительность: 1 ч. 30 м.
Вид битрейта: Постоянный
Битрейт: 448 Кбит/сек
Каналы: 6 каналов
Расположение каналов: Front: L C R, Side: L R, LFE
Частота: 48,0 КГц
Битовая глубина: 16 бит
Метод сжатия: С потерями
Размер потока: 290 Мбайт (13%)
Заголовок: Закадровый многоголосый
Язык: Russian
Default: Да
Forced: Нет




реклама партнёра


Вернуться к началу
 Профиль  
 
   Похожие торренты   Автор   Торрент   Размер 
В этой теме нет новых непрочитанных сообщений. We Butter The Bread With Butter - Goldkinder (Deluxe Edition) [2013, Deathcore, Metalcore, Electronic, MP3]

PriZraK

3 | 1

177.79 МБ

В этой теме нет новых непрочитанных сообщений. Всё о мужчинах [комедия, 2016] BDRip 720p [Лицензия]

salma3

528 | 123

4.43 ГБ

В этой теме нет новых непрочитанных сообщений. Ёлки 3 [Комедия, 2013] BDRip 720p [Лицензия]

Dracon

1 | 2

4.55 ГБ

В этой теме нет новых непрочитанных сообщений. Горько! 2 [комедия, 2014] BDRip 720p [Лицензия]

Dracon

69 | 3

3.64 ГБ

В этой теме нет новых непрочитанных сообщений. Всё включено 2 [комедия, 2013] BDRip 720p [Лицензия]

Dracon

343 | 24

3.91 ГБ

В этой теме нет новых непрочитанных сообщений. Снова 16 / 16 ans ou presque [Комедия, 2013] BDRip 720p, Dub [Лицензия]

Dracon

122 | 7

4.6 ГБ

В этой теме нет новых непрочитанных сообщений. Полетта / Paulette [комедия, 2012] BDRip 720p, Dub+Sub [Лицензия]

Dracon

8 | 2

4.6 ГБ


Начать новую тему Ответить на тему  [ 1 сообщение ] 




Для Мосгорсуда, Роскомнадзора и рекламодателей:: mosgorsud-torrent[собачка]yandex.ru