Торрент файл
скачать торрент магнет ссылка Добавлен: 14 дек 2012, 15:50
Размер: 1.46 ГБ
Сидеров: 78
Личеров: 4
Статус: (salma3)
Автор

СообщениеДобавлено: 14 дек 2012, 15:50 

Не в сети
Супермодератор
Аватара пользователя
Дата регистрации:
15 фев 2012, 16:44
Возраст: 28
Спасибо: 6593 / 2145
Сообщения: 44208

Супер Фантоцци / Superfantozzi

Год выхода: 1986
Жанр: Комедия
Режиссер: Нери Паренти
В ролях: Паоло Вилладжо, Лью Босисио, Джиджи Редер, Плинио Фернандо, Ева Лена, Люк Меренда, Джимми иль Феномено

О фильме:
Очередной фильм о злоключениях Уго Фантоцци авторы фильма решили начать с самого, самого начала, а именно, с сотворения человека в раю, где Фантоции был первой, неудачной попыткой Господа создать нас по образу и подобию своему. Через день он создал Адама, Еву. Увидев, что было выдано Адаму, Уго тоже попросил женщину. И получил на свою... голову (полная противоположность красавице Еве). Потом Господь изгоняет супругов Фантоцци из Рая за то что Фантоцци по просьбе Евы сорвал запретный плод. Но Господь не знал о злой шутке Евы. Далее идут небольшие сюжеты, в которых показывается злоключения Фантоцци в разных исторических эпохах. Сначала злоключения Фантоцци в доисторические времена, затем в Древнем Риме, затем время Иисуса Христа, далее — Средневековье, время Робин Гуда, французской революции, 19 век, 30-е годы в США, Вторая Мировая война, современность (т. е. 1986) и будущее.



Страна: Италия
Продолжительность: 01:29:48
Перевод: Профессиональный [одноголосый закадровый]

Файл
Кодек: XviD
Качество: DVDRip
Видео: 704 х 544, ~2130 Kbps, 25 fps
Звук: AC3, 2ch, ~192 Kbps
Субтитры: Нет

Семпл



General
Complete name: F:ФИЛЬМЫ-КОЛЛЕКЦИЯФ-ФSuperfantozzi.1986.XviD.DVDRip.avi
Format: AVI
Format/Info: Audio Video Interleave
File size: 1.46 GiB
Duration: 1h 29mn
Overall bit rate: 2 332 Kbps
Writing application: VirtualDubMod 1.5.10.2 (build 2540/release)
Writing library: VirtualDubMod build 2540/release

Video
ID: 0
Format: MPEG-4 Visual
Format profile: Advanced Simple@L5
Format settings, BVOP: Yes2ch, 192 Кбит/с
Format settings, QPel: No
Format settings, GMC: No warppoints
Format settings, Matrix: Default (MPEG)
Codec ID: XVID
Codec ID/Hint: XviD
Duration: 1h 29mn
Bit rate: 2 130 Kbps
Width: 704 pixels
Height: 544 pixels
Display aspect ratio: 1.294
Frame rate: 25.000 fps
Resolution: 8 bits
Colorimetry: 4:2:0
Scan type: Progressive
Bits/(Pixel*Frame): 0.222
Stream size: 1.34 GiB (91%)
Writing library: XviD 1.2.0.dev47 (UTC 2006-11-01)

Audio
ID: 1
Format: AC-3
Format/Info: Audio Coding 3
Codec ID: 2000
Duration: 1h 29mn
Bit rate mode: Constant
Bit rate: 192 Kbps
Channel(s): 2 channels
Channel positions: Front: L R
Sampling rate: 48.0 KHz
Stream size: 123 MiB (8%)
Alignment: Split accross interleaves
Interleave, duration: 40 ms (1.00 video frame)
Interleave, preload duration: 500 ms




реклама партнёра


Вернуться к началу
 Профиль Отправить личное сообщение  
 
   Похожие торренты   Автор   Торрент   Размер 
В этой теме нет новых непрочитанных сообщений. Супер Фантоцци / Superfantozzi [Комедия, 1986] DVDRip-AVC, Avo

salma3

111 | 68

3.78 ГБ

В этой теме нет новых непрочитанных сообщений. Фантоцци / Fantozzi [Комедия, 1975] DVDRip-AVC, Mvo

salma3

188 | 40

3.54 ГБ

В этой теме нет новых непрочитанных сообщений. Фантоцци в раю / Fantozzi in paradiso [Комедия, 1993] DVDRip-AVC, Mvo

salma3

124 | 26

3.07 ГБ

В этой теме нет новых непрочитанных сообщений. Возвращение Фантоцци / Fantozzi - Il ritorno [Комедия, 1996] DVDRip-AVC, Mvo

salma3

61 | 10

3.1 ГБ

В этой теме нет новых непрочитанных сообщений. Фантоцци уходит на пенсию / Fantozzi va in pensione [Комедия, 1988] DVDRip-AVC, Mvo

salma3

113 | 69

3.64 ГБ

В этой теме нет новых непрочитанных сообщений. У Фантоцци опять неприятности / Fantozzi subisce ancora [Комедия, 1983] DVDRip-AVC, Mvo

salma3

109 | 53

3.4 ГБ

В этой теме нет новых непрочитанных сообщений. Фантоцци берет реванш / Fantozzi alla riscossa [Комедия, 1990] DVDRip-AVC, Mvo

salma3

105 | 27

3.34 ГБ


Начать новую тему Ответить на тему  [ 1 сообщение ] 




Для Мосгорсуда, Роскомнадзора и рекламодателей:: mosgorsud-torrent[собачка]yandex.ru