Торрент файл
скачать торрент магнет ссылка Добавлен: 13 дек 2012, 12:39
Размер: 2.18 ГБ
Сидеров: 0
Личеров: 1
Автор

СообщениеДобавлено: 13 дек 2012, 12:39 

Не в сети
Дата регистрации:
27 июл 2010, 19:47
Спасибо: 1 / 0
Сообщения: 3
Убойные каникулы / Tucker & Dale vs Evil
«Куча жертв... ни одного маньяка»
Страна: Канада
Студия: Eden Rock Media, Looby Lou, Reliance Motion Picture Company
Жанр: ужасы, комедия
Год выпуска: 2010
Продолжительность: 01:28:43
Перевод#1: Профессиональный (дублированный) лицензия
Перевод#2: Одноголосый (закадровый) А. Киреев (по тексту Д. "Гоблина" Пучкова)
Cубтитры: русские (FORCED+FULL GOBLIN) + английские (FORCED+FULL+FULL SDH) отдельно
Оригинальная аудиодорожка: английский
Режиссёр: Эли Крэйг / Eli Craig
В ролях: Тайлер Лэбин, Алан Тьюдик, Кэти Боуден, Джесси Мосс, Филип Грэйнджер, Брэндон Джей МакЛарен, Кристи Лэйн, Челан Симмонс, Трэвис Нельсон, Алекс Арсено.
Описание:
Группа студентов колледжа отправляется за город, чтобы вовсю оторваться на выходных: попить пивка, поплавать в озере и подышать чистым лесным воздухом. Но уже в первый день они сталкиваются с неотесанными фермерами Такером и Дэйлом, также решившими как следует оттянуться на природе. Приняв этих диковатых, но, в сущности, симпатичных ребят за «злобных местных», горожане решают дать деревенщине жесткий отпор. Но с каждым их шагом становится только хуже…
Сэмпл: http://multi-up.com/802890
Качество видео: BDRip (Исх.: Tucker.And.Dale.USA-Transfer.BlueBirdHD)
Формат видео: AVI
Видео: XviD build 65, 720x304 (2.37:1), 23.976 fps, 2155 kbps avg, 0.411 bit/pixel
Аудио#1: 48 kHz, AC3 Dolby Digital, 3/2 (L,C,R,l,r) + LFE ch, 448 kbps avg (Rus Dub)
Аудио#2: 48 kHz, AC3 Dolby Digital, 3/2 (L,C,R,l,r) + LFE ch, 448 kbps avg (VO Киреев)
Аудио#3: 48 kHz, AC3 Dolby Digital, 3/2 (L,C,R,l,r) + LFE ch, 448 kbps avg (Original Eng)
Формат субтитров: softsub (SRT)
MediaInfo
Общее
Полное имя : D:\Tucker&Dale.vs.Evil.2010.TRIPLE.USA-Transfer.BDRip.XviD.AC3\Tucker&Dale.vs.Evil.2010.TRIPLE.USA-Transfer.BDRip.XviD.AC3.avi
Формат : AVI
Формат/Информация : Audio Video Interleave
Профиль формата : OpenDML
Размер файла : 2,18 Гбайт
Продолжительность : 1 ч. 28 м.
Общий поток : 3522 Кбит/сек
Программа кодирования : VirtualDubModRus 1.5.10.2 (build 2542/release)
Библиотека кодирования : VirtualDubMod build 2542/release
Видео
Идентификатор : 0
Формат : MPEG-4 Visual
Профиль формата : Advanced Simple@L5
Параметр BVOP формата : 1
Параметр QPel формата : Нет
Параметр GMC формата : Без точки перехода
Параметр матрицы формата : Выборочная
Идентификатор кодека : XVID
Идентификатор кодека/Подсказка : XviD
Продолжительность : 1 ч. 28 м.
Битрейт : 2155 Кбит/сек
Ширина : 720 пикселей
Высота : 304 пикселя
Соотношение сторон : 2,35:1
Частота кадров : 23,976 кадра/сек
Цветовое пространство : YUV
Субдискретизация насыщенности : 4:2:0
Битовая глубина : 8 бит
Тип развёртки : Прогрессивная
Метод сжатия : С потерями
Бит/(Пиксели*Кадры) : 0.411
Размер потока : 1,34 Гбайт (61%)
Библиотека кодирования : XviD 65
Аудио #1
Идентификатор : 1
Формат : AC-3
Формат/Информация : Audio Coding 3
Расширение режима : CM (complete main)
Идентификатор кодека : 2000
Продолжительность : 1 ч. 28 м.
Вид битрейта : Постоянный
Битрейт : 448 Кбит/сек
Каналы : 6 каналов
Расположение каналов : Front: L C R, Side: L R, LFE
Частота : 48,0 КГц
Битовая глубина : 16 бит
Метод сжатия : С потерями
Задержка видео : 7 с. 885 мс.
Размер потока : 284 Мбайт (13%)
Выравнивание : Разделение по промежуткам
Продолжительность промежутка : 42 мс. (1,00 видеокадр)
Время предзагрузки промежутка : 500 мс.
Заголовок : Rus Dub
Аудио #2
Идентификатор : 2
Формат : AC-3
Формат/Информация : Audio Coding 3
Расширение режима : CM (complete main)
Идентификатор кодека : 2000
Продолжительность : 1 ч. 28 м.
Вид битрейта : Постоянный
Битрейт : 448 Кбит/сек
Каналы : 6 каналов
Расположение каналов : Front: L C R, Side: L R, LFE
Частота : 48,0 КГц
Битовая глубина : 16 бит
Метод сжатия : С потерями
Задержка видео : 7 с. 950 мс.
Размер потока : 284 Мбайт (13%)
Выравнивание : Разделение по промежуткам
Продолжительность промежутка : 42 мс. (1,00 видеокадр)
Время предзагрузки промежутка : 500 мс.
Заголовок : Rus VO Киреев
Аудио #3
Идентификатор : 3
Формат : AC-3
Формат/Информация : Audio Coding 3
Расширение режима : CM (complete main)
Идентификатор кодека : 2000
Продолжительность : 1 ч. 28 м.
Вид битрейта : Постоянный
Битрейт : 448 Кбит/сек
Каналы : 6 каналов
Расположение каналов : Front: L C R, Side: L R, LFE
Частота : 48,0 КГц
Битовая глубина : 16 бит
Метод сжатия : С потерями
Размер потока : 284 Мбайт (13%)
Выравнивание : Разделение по промежуткам
Продолжительность промежутка : 42 мс. (1,00 видеокадр)
Время предзагрузки промежутка : 500 мс.
Заголовок : Eng Original





реклама партнёра


Вернуться к началу
 Профиль Отправить личное сообщение  
 
   Похожие торренты   Автор   Торрент   Размер 
В этой теме нет новых непрочитанных сообщений. И грянул шторм / The Finest Hours (Крэйг Гиллеспи / Craig Gillespie) [2016г., боевик, триллер, драма, история, WEB-DLRip] dub

Alfredovich

8025 | 630

1.37 ГБ

В этой теме нет новых непрочитанных сообщений. Костяной томагавк / Bone Tomahawk (С. Крэйг Залер) [ужасы, вестер, 2015] BDRip, Dub [iTunes]

Dracon

3842 | 129

1.46 ГБ

В этой теме нет новых непрочитанных сообщений. Обитель зла: Пенталогия / Resident Evil: Pentalogy [ужасы, фантастика, 2002, 2004, 2007, 2010, 2012] BDRip, Avo [Гаврилов]

salma3

10 | 3

7.28 ГБ

В этой теме нет новых непрочитанных сообщений. Ничего не вижу, ничего не слышу / See No Evil, Hear No Evil [боевик, триллер, комедия, криминал, 1989] BDRip 1080p, Mvo+Avo+Sub

salma3

26 | 7

7.76 ГБ

В этой теме нет новых непрочитанных сообщений. Костяной томагавк / Bone Tomahawk (С. Крэйг Залер) [ужасы, вестер, 2015] BDRip 720p, Dub [iTunes]

Dracon

732 | 40

6.32 ГБ

В этой теме нет новых непрочитанных сообщений. Костяной томагавк / Bone Tomahawk (С. Крэйг Залер) [ужасы, вестер, 2015] BDRip 1080p, Dub [iTunes]

Dracon

640 | 47

11.34 ГБ

В этой теме нет новых непрочитанных сообщений. Не вижу зла 2 / See No Evil 2 [Ужасы, 2014] BDRip 720p, mvo

Dracon

297 | 17

4.7 ГБ


Начать новую тему Ответить на тему  [ 1 сообщение ] 




Для Мосгорсуда, Роскомнадзора и рекламодателей:: mosgorsud-torrent[собачка]yandex.ru