Торрент файл
скачать торрент магнет ссылка Добавлен: 13 дек 2012, 12:30
Размер: 1.86 ГБ
Сидеров: 4
Личеров: 3
Автор

СообщениеДобавлено: 13 дек 2012, 12:30 

Не в сети
Дата регистрации:
27 июл 2010, 19:47
Спасибо: 1 / 0
Сообщения: 3
Акт мести / Act of Vengeance / Полноэкранная версия
Страна: США, Канада
Жанр: Драма, триллер, боевик
Год выпуска: 1986
Продолжительность: 01:27:40
Перевод: Профессиональный (многоголосый закадровый)
Режиссер: Джон МакКензи / John Mackenzie
В ролях: Чарльз Бронсон, Эллен Бёрстин, Уилфорд Бримли, Хойт Экстон, Роберт Шенккан, Эллен Баркин, Мори Чайкин, Кэролайн Кэва, Пег Мюррэй, Уильям Ньюман

Описание: Этот захватывающих фильм основан на реальных событиях и повествует о людях их реальной жизни, которые были участниками движения профсоюзов. Это одна из весьма несвойственных ролей Чарльза Бронсона. Выступая против коррупции, Яблонски (Чарльз Бронсон) сталкивается лицом к лицу с шефом Тони Бойлом, который всячески ущемляет права профсоюзов и даже не боится нанять профессиональный убийц для ликвидации Яблонского, пытающегося прорваться в лидеры для дальнейшей борьбы с несправедливостью и коррупцией, как в низах, так и на верхушке профсоюза. Весьма драматичный и достаточно тяжелый сюжет, демонстрирующий несправедливость, грязь и беспорядок, происходивший в борьбе за власть. Данная кинолента подталкивает на размышления, а также демонстрирует обстановку в США в самом конце шестидесятых годов.

Доп. информация: Запись является уникальной, так Как данный фильм на ДВД никогда не издавался, а в раздаче представлен качественный исходник записанный с техканала. Озвучка канала НТВ.

Качество видео: DVB
Формат видео: TS
Видео: 720x576 (4:3) @ 786x576, 25.000 fps, AVC, ~2630 Kbps, 0.254 bits/pixel
Аудио: Русский, 48.0 KHz, MPEG-1 Audio layer 2, 2 ch, 256 Kbps
MediaInfo
General
ID : 1 (0x1)
Complete name : D:\Act of Vengeance (1986).ts
Format : MPEG-TS
File size : 1.86 GiB
Duration : 1h 27mn
Overall bit rate : 3 032 Kbps
Video
ID : 37 (0x25)
Menu ID : 1 (0x1)
Format : AVC
Format/Info : Advanced Video Codec
Format profile : High@L3.0
Format settings, CABAC : Yes
Format settings, ReFrames : 3 frames
Format settings, GOP : M=1, N=40
Codec ID : 27
Duration : 1h 27mn
Bit rate : 2 624 Kbps
Width : 720 pixels
Height : 576 pixels
Display aspect ratio : 4:3
Frame rate : 25.000 fps
Standard : Component
Color space : YUV
Chroma subsampling : 4:2:0
Bit depth : 8 bits
Scan type : Interlaced
Scan order : Top Field First
Bits/(Pixel*Frame) : 0.253
Stream size : 1.61 GiB (87%)
Color primaries : BT.470-6 System B, BT.470-6 System G, BT.601-6 625, BT.1358 625, BT.1700 625 PAL, BT.1700 625 SECAM
Transfer characteristics : BT.470-6 System B, BT.470-6 System G
Matrix coefficients : BT.470-6 System B, BT.470-6 System G, BT.601-6 625, BT.1358 625, BT.1700 625 PAL, BT.1700 625 SECAM, IEC 61966-2-4 601
Audio
ID : 32 (0x20)
Menu ID : 1 (0x1)
Format : MPEG Audio
Format version : Version 1
Format profile : Layer 2
Codec ID : 3
Duration : 1h 27mn
Bit rate mode : Constant
Bit rate : 256 Kbps
Channel(s) : 2 channels
Sampling rate : 48.0 KHz
Compression mode : Lossy
Stream size : 161 MiB (8%)
Language : English
Скриншоты




реклама партнёра


Вернуться к началу
 Профиль Отправить личное сообщение  
 
   Похожие торренты   Автор   Торрент   Размер 
В этой теме нет новых непрочитанных сообщений. Меч мести / Sword of Vengeance (Джим Видон) [2015, боевик, исторический, WEB-DLRip] dvo

Nickolas3435

1126 | 62

1.36 ГБ

В этой теме нет новых непрочитанных сообщений. Меч мести / Sword of Vengeance (Джим Видон) [боевик, исторический, 2015] WEB-DLRip, avo

Dracon

2171 | 75

1.37 ГБ

В этой теме нет новых непрочитанных сообщений. Меч мести / Sword of Vengeance (Джим Видон) [2015, боевик, исторический, WEB-DLRip] dvo

Nickolas3435

344 | 35

745.96 МБ

В этой теме нет новых непрочитанных сообщений. Меч мести / Sword of Vengeance (Джим Видон) [боевик, исторический, 2015] WEB-DL 720p, avo

Dracon

985 | 38

2.76 ГБ

В этой теме нет новых непрочитанных сообщений. Джон Доу / John Doe: Vigilante (Келли Долен) [боевик, триллер, 2014] HDRip, dvo

Dracon

4536 | 118

1.36 ГБ

В этой теме нет новых непрочитанных сообщений. Джон Уик / John Wick (Дэвид Лейтч, Чад Стахелски) [боевик, триллер, 2014] Blu-Ray, Dub+Sub

Dracon

1 | 3

41.72 ГБ

В этой теме нет новых непрочитанных сообщений. Джон Уик / John Wick (Дэвид Лейтч, Чад Стахелски) [боевик, триллер, 2014] WEB-DLRip, Avo

Dracon

4242 | 88

1.46 ГБ


Начать новую тему Ответить на тему  [ 1 сообщение ] 




Для Мосгорсуда, Роскомнадзора и рекламодателей:: mosgorsud-torrent[собачка]yandex.ru