Торрент файл
скачать торрент магнет ссылка Добавлен: 11 дек 2012, 21:45
Размер: 1.37 ГБ
Сидеров: 7
Личеров: 2
Статус: (salma3)
Автор

СообщениеДобавлено: 11 дек 2012, 21:45 

Не в сети
Супермодератор
Аватара пользователя
Дата регистрации:
15 фев 2012, 16:44
Возраст: 27
Спасибо: 5121 / 2089
Сообщения: 17342

Гремучие змеи / Venomous

Год выхода: 2001
Жанр: Ужасы, триллер
Режиссер: Фред Олен Рэй
В ролях: Трит Уильямс, Мэри Пейдж Келлер, Ханнес Янике, Катрин Дент, Энтони Джон Дэнисон, Джеффри Пирсон, Брайан Пот, Николь Нит, Джим Сторм


О фильме:
Мощное землетрясение разбудило подземных обитателей городка Санта-Мира. Встревоженные змеи выползли на волю, кусая всех, кто не привык смотреть под ноги. Доктор Дэвид Хэннинг оказывает помощь жертвам укусов, но вскоре они начинают умирать от неизвестной болезни. Таинственный вирус мгновенно распространяется по городу, не щадя никого. Власти в панике, и только Дэвид догадывается, что виновники смертоносной эпидемии -неуловимые гремучие змеи. Однако военные ре приняли решение - Санта-Миру нужно стереть с лица земли, и теперь у Дэвида есть всего пара часов, чтобы спасти обреченных сограждан и разоблачить преступный заговор спецслужб, стремящихся любой ценой замести следы своих тайных экспериментов.




Страна: США
Продолжительность: 01:33:12
Перевод: Профессиональный (двухголосый)

Файл
Кодек: MKV
Качество: DVDRip-AVC
Видео: 704x376 (16:9), 1656kbps, 23,976fps, L4.1, AVC
Звук: AC3, 448kbps, 6ch, 48kHz

Релиз от:

Итак, тема змей в подобного рода ужастиках уже настолько избита, что сценаристы даже не проявляют никакого желания поставить на ноги чей-то древний, заезженный временем и подобными проектами сценарий и внести в него хоть что-то оригинальное (ну хотя бы вид змей смените — неужели так сложно). Именно в этом я смог очередной раз убедиться при просмотре фильма «Гремучие змеи».

При этом старые знакомые элементы сюжета в виде нескончаемого дежа вю будут преследовать зрителя с самого начала и не отставая от него не на шаг дойдут до еще одного до боли знакомого финала. Как результат: смотришь очередной змеиный ужастик, а кажется, что видишь один и тот же фильм, только актеры каждый раз меняются (правда и на их счет возникают сомнения, ведь персонажи ничем не запоминающиеся, практически однотипные).

Действительно: опять авария, сбежавшие змеи тут как тут, пара добрых докторов не без романтической линии, гибель людей, вмешательство военных и дальше список вы сами можете продолжить, если пару раз смотрели ТВ-ужастики с такими вот главными злодеями.

При этом все эти сценарные традиции напоминают о себе с самого начала, так что сразу ясно, что впереди ничего свежего не будет. По ходу просмотра мне даже хотелось выключить телевизор, но участие Трита Уильямса («Подъем с глубины») меня остановило, а жаль…

Прибавьте сюда ТВ-качество проекта, не самые лучшие спецэффекты, которые здесь в принципе и не нужны вовсе, ведь змеи и люди в кадр попадают только порознь, а по ходу просмотра при каждом землетрясении змеи почему-то выскакивали из одного и того же места. Откуда у простого фермера базука и как он сбил ею военный вертолет я тоже как-то не въехал, зато без всякого медицинского образования, но имея опыт просмотра подобных фильмов, сразу понятен выход из змеиной проблемы, который здесь герои очередной раз с успехом и применили. Про финал молчу — видели, знаем.

Format: Matroska
Format version: Version 2
File size: 1.37 GiB
Duration: 1h 33mn
Overall bit rate: 2 097 Kbps
Movie name: Гремучие змеи / Venomous (2001) DVDRip-AVC от TORRENT-45
Encoded date: UTC 2012-12-11 17:30:59
Writing application: mkvmerge v5.8.0 ('No Sleep / Pillow') built on Sep2 2012 15:37:04
Writing library: libebml v1.2.3 + libmatroska v1.3.0

Video
ID: 1
Format: AVC
Format/Info: Advanced Video Codec
Format profile: High@L4.1
Format settings, CABAC: Yes
Format settings, ReFrames: 5 frames
Codec ID: V_MPEG4/ISO/AVC
Duration: 1h 33mn
Bit rate: 1 656 Kbps
Width: 704 pixels
Height: 376 pixels
Display aspect ratio: 16:9
Frame rate mode: Constant
Frame rate: 25.000 fps
Color space: YUV
Chroma subsampling: 4:2:0
Bit depth: 8 bits
Scan type: Progressive
Bits/(Pixel*Frame): 0.250
Stream size: 1.05 GiB (77%)
Title: Гремучие змеи / Venomous (2001) DVDRip-AVC от TORRENT-45
Writing library: x264 core 125 r2208 d9d2288
Encoding settings: cabac=1 / ref=5 / deblock=1:-3:-3 / analyse=0x3:0x133 / me=umh / subme=10 / psy=1 / psy_rd=1.00:0.00 / mixed_ref=0 / me_range=32 / chroma_me=1 / trellis=2 / 8x8dct=1 / cqm=0 / deadzone=21,11 / fast_pskip=1 / chroma_qp_offset=-2 / threads=6 / lookahead_threads=1 / sliced_threads=0 / nr=0 / decimate=1 / interlaced=0 / bluray_compat=0 / constrained_intra=0 / bframes=6 / b_pyramid=2 / b_adapt=2 / b_bias=0 / direct=1 / weightb=1 / open_gop=0 / weightp=2 / keyint=250 / keyint_min=23 / scenecut=40 / intra_refresh=0 / rc_lookahead=60 / rc=abr / mbtree=1 / bitrate=1656 / ratetol=1.0 / qcomp=0.60 / qpmin=0 / qpmax=69 / qpstep=4 / ip_ratio=1.40 / aq=1:1.00
Default: Yes
Forced: No

Audio
ID: 2
Format: AC-3
Format/Info: Audio Coding 3
Mode extension: CM (complete main)
Format settings, Endianness: Big
Codec ID: A_AC3
Duration: 1h 33mn
Bit rate mode: Constant
Bit rate: 448 Kbps
Channel(s): 6 channels
Channel positions: Front: L C R, Side: L R, LFE
Sampling rate: 48.0 KHz
Bit depth: 16 bits
Compression mode: Lossy
Stream size: 299 MiB (21%)
Title: RUS Профессиональный (двухголосый)
Default: Yes
Forced: No







реклама партнёра


Вернуться к началу
 Профиль Отправить личное сообщение  
 
   Похожие торренты   Автор   Торрент   Размер 
В этой теме нет новых непрочитанных сообщений. Гремучие змеи / Venomous [ужасы, фантастика, боевик, 2001] DVDRip, Dvo

salma3

6 | 6

1.37 ГБ

В этой теме нет новых непрочитанных сообщений. Шоссе 666 / Route 666 [ужасы, боевик, триллер, 2001] DVDRip-AVC, Mvo

salma3

34 | 4

1.46 ГБ

В этой теме нет новых непрочитанных сообщений. Бессмертные души / Soul Survivors [ Ужасы, Триллер, 2001] DVDRip-AVC, Mvo

salma3

1 | 2

1.46 ГБ

В этой теме нет новых непрочитанных сообщений. Воздушные змеи / Kites [боевик, триллер, драма, 2010] BDRip, Mvo [Red Media]

salma3

25 | 4

1.88 ГБ

В этой теме нет новых непрочитанных сообщений. Глаза змеи / Snake Eyes [Триллер, криминал, детектив, 1998] BDRip 720p, dub+mvo+avo

salma3

71 | 5

7.88 ГБ

В этой теме нет новых непрочитанных сообщений. Приют кошмаров / The Attic Expeditions [ужасы, триллер, комедия, детектив, 2001] DVDRip, Avo

salma3

50 | 8

1.46 ГБ

В этой теме нет новых непрочитанных сообщений. Земля против паука / Earth vs. the Spider [ужасы, фантастика, триллер, 2001] DVDRip, Mvo

salma3

10 | 4

1.37 ГБ


Начать новую тему Ответить на тему  [ 1 сообщение ] 




Для Мосгорсуда, Роскомнадзора и рекламодателей:: mosgorsud-torrent[собачка]yandex.ru