Торрент файл
скачать торрент магнет ссылка Добавлен: 10 дек 2012, 17:00
Размер: 705.96 МБ
Сидеров: 1
Личеров: 2
Статус: (salma3)
Автор

СообщениеДобавлено: 10 дек 2012, 17:00 

В сети
Супермодератор
Аватара пользователя
Дата регистрации:
15 фев 2012, 16:44
Возраст: 27
Спасибо: 5130 / 2089
Сообщения: 17349
Человек-комар / Mansquito

Год выхода: 2005
Жанр: ужасы, фантастика
Режиссер: Тибор Такач/Tibor Takács
В ролях: Корин Немек, Музетта Вандер, Криста Кэмпбелл, Мэтт Джордан, Патрик Драйкаусс, Джей Бенедик, Иво Тончев, Владимир Николов,

О фильме:
В секретной биолаборатории велись эксперименты по созданию антивируса, способного победить редкую африканскую болезнь. Подопытными были преступники, приговоренные к смертной казни. Одного такого заключенного, Рэя Эриксона, привезли в лабораторию, а он взял да и устроил форменный погром и сбежал. Сбежал, правда, уже после того, как подхватил вирус. Поэтому в скором времени Рэй превратился в громадного москита...



Страна: США
Студия: Active Entertainment / Nu-Image Films
Продолжительность: 01:26:16
Перевод: Профессиональный (многоголосный, закадровый)

Файл
Кодек: XviD, (AVI)
Качество: DVDRip
Видео: 608x336 (1.81:1), 25.000 fps, XviD Final 1.0.3 (build 37) ~1006 kbps, 0.20 bit/pixel
Звук: 48.0 kHz, MPEG Layer 3, 2 channels, 128 kbps
General:
Format : AVI
Format/Info : Audio Video Interleave
File size : 706 MiB
Duration : 1h 26mn
Overall bit rate : 1 144 Kbps
Writing application : VirtualDubModRus 1.5.10.2 (build 2542/release)
Writing library : VirtualDubMod build 2542/release

Video:
ID : 0
Format : MPEG-4 Visual
Format profile : Advanced Simple@L5
Format settings, BVOP : No
Format settings, QPel : No
Format settings, GMC : No warppoints
Format settings, Matrix : Default (H.263)
Codec ID : XVID
Codec ID/Hint : XviD
Duration : 1h 26mn
Bit rate : 1 006 Kbps
Width : 608 pixels
Height : 336 pixels
Display aspect ratio : 16:9
Frame rate : 25.000 fps
Color space : YUV
Chroma subsampling : 4:2:0
Bit depth : 8 bits
Scan type : Progressive
Compression mode : Lossy
Bits/(Pixel*Frame) : 0.197
Stream size : 621 MiB (88%)
Writing library : XviD 1.0.3 (UTC 2004-12-20)

Audio:
ID : 1
Format : MPEG Audio
Format version : Version 1
Format profile : Layer 3
Mode : Joint stereo
Mode extension : MS Stereo
Codec ID : 55
Codec ID/Hint : MP3
Duration : 1h 26mn
Bit rate mode : Constant
Bit rate : 128 Kbps
Channel(s) : 2 channels
Sampling rate : 48.0 KHz
Compression mode : Lossy
Stream size : 79.0 MiB (11%)
Alignment : Aligned on interleaves
Interleave, duration : 40 ms (1.00 video frame)
Interleave, preload duration : 504 ms





реклама партнёра


Вернуться к началу
 Профиль Отправить личное сообщение  
 
   Похожие торренты   Автор   Торрент   Размер 
В этой теме нет новых непрочитанных сообщений. Человек-акула / Hammerhead [ужасы, фантастика, 2005] DVDRip, Mvo [ТВ3]

salma3

28 | 3

1.46 ГБ

В этой теме нет новых непрочитанных сообщений. Человек-краб с Марса / Lobster Man from Mars [ужасы, фантастика, комедия, 1988] DVDRip, 2Avo

salma3

14 | 4

1.46 ГБ

В этой теме нет новых непрочитанных сообщений. Почти человек / Almost Human [ужасы, фантастика, 2013] HDRip, dvo

Dracon

107 | 8

1.47 ГБ

В этой теме нет новых непрочитанных сообщений. Человекоядные / Insecticidal [Ужасы, Фантастика, 2005] DVDRip, Mvo

salma3

40 | 3

1.37 ГБ

В этой теме нет новых непрочитанных сообщений. Почти человек / Almost Human [ужасы, фантастика, 2013] BDRip 720p, Dvo+Sub

salma3

51 | 5

3.61 ГБ

В этой теме нет новых непрочитанных сообщений. Почти человек / Almost Human [ужасы, фантастика, 2013] BDRip 1080p, Dvo+Sub

salma3

24 | 5

6.62 ГБ

В этой теме нет новых непрочитанных сообщений. Бешеные акулы / Raging Sharks [Ужасы, фантастика, 2005] DVDRip, Dvo

salma3

47 | 15

1.37 ГБ


Начать новую тему Ответить на тему  [ 1 сообщение ] 




Для Мосгорсуда, Роскомнадзора и рекламодателей:: mosgorsud-torrent[собачка]yandex.ru