Торрент файл
скачать торрент магнет ссылка Добавлен: 09 дек 2012, 00:21
Размер: 1.45 ГБ
Сидеров: 50
Личеров: 8
Статус: (salma3)
Автор

СообщениеДобавлено: 09 дек 2012, 00:21 

Не в сети
Супермодератор
Аватара пользователя
Дата регистрации:
15 фев 2012, 16:44
Возраст: 28
Спасибо: 6578 / 2143
Сообщения: 43992
Сахара / Sahara

Перевод: Профессиональный (двухголосый, закадровый), cубтитры: отсутствуют
Формат: DVDRip-AVC, MKV, H.264, MP3
Страна: Великобритания, США
Режиссер: Эндрю В. МакЛаглен
Жанр: драма, приключения
Продолжительность: 01:41:54
Год выпуска: 1983
В ролях: Брук Шилдс, Ламбер Вильсон, Хорст Буххольц, Джон Рис-Дэвис, Рональд Лэйси, Клифф Поттс, Перри Лэнг, Яаков Бен-Сира, Джон Миллз, Тувиа Тави

Описание: В 1928 году прекрасная американка, наследница большого состояния, приезжает в Сахару, чтобы выполнить волю покойного отца — выиграть автогонку в пустыне. Так как к гонке допускаются только мужчины, она переодевается, ну, а затем — гонки, арабские племена, кровавые сражения, шейхи, жаждущие ее красоты…



Видео: 720x432@1024x432 (2.35:1) 25 fps, AVC (х264) High@L4.1, ~ 1841 Kbps, 0.237 bit/pixel
Аудио: 48 kHz, MPEG Layer 3, 2 ch, ~192.00 kbps avg
General
Complete name: D:Сахара/Sahara.DVDRipAVC.mkv
Format: Matroska
File size: 1.45 GiB
Duration: 1h 41mn
Overall bit rate: 2 035 Kbps
Encoded date: UTC 2012-06-27 16:59:48
Writing application: mkvmerge v3.3.0 ('Language') gebaut am Mar 24 2010 14:59:24
Writing library: libebml v0.8.0 + libmatroska v0.9.0
Video
ID: 1
Format: AVC
Format/Info: Advanced Video Codec
Format profile: High@L4.1
Format settings, CABAC: Yes
Format settings, ReFrames: 12 frames
Codec ID: V_MPEG4/ISO/AVC
Duration: 1h 41mn
Bit rate: 1 841 Kbps
Width: 720 pixels
Height: 432 pixels
Display aspect ratio: 2.35:1
Frame rate: 25.000 fps
Color space: YUV
Chroma subsampling: 4:2:0
Bit depth: 8 bits
Scan type: Progressive
Bits/(Pixel*Frame): 0.237
Stream size: 1.28 GiB (89%)
Title: Sahara DVDRip by SC Kosmos
Writing library: x264 core 125 r2200 999b753
Encoding settings: cabac=1 / ref=12 / deblock=1:-2:-2 / analyse=0x3:0x113 / me=umh / subme=10 / psy=1 / psy_rd=1.00:0.15 / mixed_ref=1 / me_range=32 / chroma_me=1 / trellis=2 / 8x8dct=1 / cqm=0 / deadzone=21,11 / fast_pskip=1 / chroma_qp_offset=-3 / threads=12 / lookahead_threads=2 / sliced_threads=0 / nr=0 / decimate=1 / interlaced=0 / bluray_compat=0 / constrained_intra=0 / bframes=12 / b_pyramid=2 / b_adapt=1 / b_bias=0 / direct=1 / weightb=1 / open_gop=0 / weightp=2 / keyint=250 / keyint_min=25 / scenecut=40 / intra_refresh=0 / rc_lookahead=40 / rc=2pass / mbtree=1 / bitrate=1841 / ratetol=1.0 / qcomp=0.60 / qpmin=0 / qpmax=69 / qpstep=4 / cplxblur=20.0 / qblur=0.5 / ip_ratio=1.40 / aq=1:1.00
Language: RUS
Color primaries: BT.470-6 System B, BT.470-6 System G, BT.601-6 625, BT.1358 625, BT.1700 625 PAL, BT.1700 625 SECAM
Transfer characteristics: BT.470-6 System B, BT.470-6 System G
Matrix coefficients: BT.470-6 System B, BT.470-6 System G, BT.601-6 625, BT.1358 625, BT.1700 625 PAL, BT.1700 625 SECAM, IEC 61966-2-4 601
Audio
ID: 2
Format: MPEG Audio
Format version: Version 1
Format profile: Layer 3
Codec ID: A_MPEG/L3
Codec ID/Hint: MP3
Duration: 1h 41mn
Bit rate mode: Constant
Bit rate: 192 Kbps
Channel(s): 2 channels
Sampling rate: 48.0 KHz
Stream size: 140 MiB (9%)
Title: MVO [HTB]
Language: Russian
Menu
00:00:00.000: en:Chapter 01
00:03:38.600: en:Chapter 02
00:08:44.840: en:Chapter 03
00:11:04.120: en:Chapter 04
00:17:28.160: en:Chapter 05
00:23:07.800: en:Chapter 06
00:29:51.640: en:Chapter 07
00:33:48.400: en:Chapter 08
00:36:58.400: en:Chapter 09
00:45:00.800: en:Chapter 10
00:55:23.000: en:Chapter 11
01:02:54.320: en:Chapter 12
01:14:18.120: en:Chapter 13
01:20:19.480: en:Chapter 14
01:30:18.200: en:Chapter 15
01:39:12.400: en:Chapter 16
01:41:52.600: en:Chapter 17











реклама партнёра


Вернуться к началу
 Профиль Отправить личное сообщение  
 
   Похожие торренты   Автор   Торрент   Размер 
В этой теме нет новых непрочитанных сообщений. Сахара / Sahara [Боевик, приключения, 2005] HDRip, Dub

salma3

137 | 30

2.18 ГБ

В этой теме нет новых непрочитанных сообщений. Сахара / Sahara [Мультфильм, комедия, приключения, 2017] WEBRip 1080p, Mvo

salma3

2379 | 408

2.62 ГБ

В этой теме нет новых непрочитанных сообщений. Сахара / Sahara [военный, драма, 1995] WEB-DLRip 720p, Mvo

salma3

49 | 34

3.67 ГБ

В этой теме нет новых непрочитанных сообщений. Сахара / Sahara [боевик, военный, 1995] WEB-DL 1080p, Mvo

salma3

41 | 7

8.42 ГБ

В этой теме нет новых непрочитанных сообщений. Сахара / Sahara [Мультфильм, комедия, приключени, 2017] HDRip, Mvo

salma3

0 | 0

1.36 ГБ

В этой теме нет новых непрочитанных сообщений. Сахара / Sahara [Мультфильм, комедия, приключени, 2017] WEBRip 720p, Mvo

salma3

737 | 117

2.18 ГБ

В этой теме нет новых непрочитанных сообщений. Цена сахара / Hoe Duur was de Suiker [драма, история, 2013] HDRip-AVC, Avo

salma3

162 | 58

2.17 ГБ


Начать новую тему Ответить на тему  [ 1 сообщение ] 




Для Мосгорсуда, Роскомнадзора и рекламодателей:: mosgorsud-torrent[собачка]yandex.ru