Торрент файл
скачать торрент магнет ссылка Добавлен: 03 дек 2012, 20:52
Размер: 1.37 ГБ
Сидеров: 16
Личеров: 4
Статус: (salma3)
Автор

СообщениеДобавлено: 03 дек 2012, 20:52 

Не в сети
Супермодератор
Аватара пользователя
Дата регистрации:
15 фев 2012, 16:44
Возраст: 27
Спасибо: 5130 / 2089
Сообщения: 17350


За тех, кого мы любим / For Those We Love

Год выхода: 2007
Жанр: Военный
Режиссер: Таку Шине
В ролях: Тору Эмори, Кацутака Фурухата, Клеве Грэй, Ичиро Хашимото, Масато Ибу, Рэндзи Исибаси, Хироши Кацуно, Нобору Кимура, Кейко Киши, Есуке Кубодзука, Ясуюки Маекава, Юри Мияшита, Сатору Мацуо, Норико Накагоши, Томоя Накамура, Харуку Рен, Микако Табе, Минори Терада, Кеничи Эндо

О фильме:
Этот фильм рассказывает о тех людях, кому начальством и судьбой был приготовлен билет в один конец- КАМИКАДЗЕ, о том как жили они, чем дышали, как любили, как их готовили и как умирали, в самоубийственных атаках, во славу императора.



Страна: Япония
Студия: Toei Company
Продолжительность: 02:15:20
Перевод: Профессиональный(одноголосый закадровый)

Файл
Кодек: XviD
Качество: DVDRip
Видео: 672x384, 1254 kbps, 23.976 fps
Звук: AC3, 2 ch, 192 kbps, 48.0 khz

General
Complete name : C:Za.tech.kogo.mi.lubim.2007.XviD.DVDRip.avi
Format : AVI
Format/Info : Audio Video Interleave
File size : 1.37 GiB
Duration : 2h 15mn 20s
Overall bit rate : 1 453 Kbps
Writing application : VirtualDubMod 1.5.4.1 (build 2178/release)
Writing library : VirtualDubMod build 2178/release
Video #0
ID : 0
Format : MPEG-4 Visual
Format profile : Advanced Simple@L5
Format settings, BVOP : 1
Format settings, QPel : No
Format settings, GMC : No warppoints
Format settings, Matrix : Custom
Codec ID : XVID
Codec ID/Hint : XviD
Duration : 2h 15mn 20s
Bit rate : 1 254 Kbps
Width : 672 pixels
Height : 384 pixels
Display aspect ratio : 16:9
Frame rate : 23.976 fps
Color space : YUV
Chroma subsampling : 4:2:0
Bit depth : 8 bits
Scan type : Progressive
Compression mode : Lossy
Bits/(Pixel*Frame) : 0.203
Stream size : 1.19 GiB (86%)
Writing library : XviD 64
Audio #1
ID : 1
Format : AC-3
Format/Info : Audio Coding 3
Mode extension : CM (complete main)
Format settings, Endianness : Big
Codec ID : 2000
Duration : 2h 15mn 20s
Bit rate mode : Constant
Bit rate : 192 Kbps
Channel(s) : 2 channels
Channel positions : Front: L R
Sampling rate : 48.0 KHz
Bit depth : 16 bits
Compression mode : Lossy
Stream size : 186 MiB (13%)
Alignment : Split accross interleaves
Interleave, duration : 96 ms (2.30 video frames)
Interleave, preload duration : 96 ms



, , , ,


Релиз от:




реклама партнёра


Вернуться к началу
 Профиль Отправить личное сообщение  
 
   Похожие торренты   Автор   Торрент   Размер 
В этой теме нет новых непрочитанных сообщений. За тех, кого мы любим / For Those We Love (Таку Шине / Taku Shinjo) [2007г., Япония, военный, BDRip-AVC] avo

Alfredovich

6 | 3

3.21 ГБ

В этой теме нет новых непрочитанных сообщений. Диверсант 2: Конец войны / Серии: 1-10 из 10 (Игорь Зайцев) [2007, Военный боевик, DVDRip - AVC]

marya111

6 | 5

6.84 ГБ

В этой теме нет новых непрочитанных сообщений. Red Hot Latinas / Красные горячие Латинки (Marc Daniels,Pablo Lapiedra,Dave Naz / Private) (Adriana Luna,Alexis Love,Isis Love,Rebeca Linares,Tristan Kingsley) [2014 г., Compilation,Gonzo,All sex,Anal,DP, DVDRip 480p]

killerslava

18 | 10

1.96 ГБ

В этой теме нет новых непрочитанных сообщений. Doppia Violazione Anale / Двойное Анальное Нарушение (Steve Holmes / Sexxx Label) (Staci Thorn, Kelly Wells, Sophia, Erika Love) [2007 г., All Sex, Anal, Oral, Gonzo, BigTits, Pantyhose, DP, DVDRip 480p]

friizze

12 | 3

1.12 ГБ

В этой теме нет новых непрочитанных сообщений. P.S. Я люблю тебя / P.S. I Love You [Драма, мелодрама, экранизация, 2007] BDRip 1080p, Dub+Mvo+Avo+Sub

salma3

108 | 37

16.06 ГБ

В этой теме нет новых непрочитанных сообщений. Любовный прогноз / Сегодняшняя любовь / Love Forecast / Today's Love (Чжин Пё Пак / Jin-pyo Park) [2015г., Южная Корея, комедия, мелодрама, HDRip] mvo

Alfredovich

4 | 3

1.47 ГБ

В этой теме нет новых непрочитанных сообщений. Любовь есть любовь / Love is love / Wang fu cheng long (Томми Леунг Ка-Шу / Tommy Ga-shu Leung) [1990г., Китай, мелодрама, комедия, HDRip] VO

Alfredovich

6 | 5

1.46 ГБ


Начать новую тему Ответить на тему  [ 1 сообщение ] 




Для Мосгорсуда, Роскомнадзора и рекламодателей:: mosgorsud-torrent[собачка]yandex.ru