Торрент файл
скачать торрент магнет ссылка Добавлен: 02 дек 2012, 13:51
Размер: 1.41 ГБ
Сидеров: 1
Личеров: 3
Статус: (salma3)
Автор

СообщениеДобавлено: 02 дек 2012, 13:51 

Не в сети
Супермодератор
Аватара пользователя
Дата регистрации:
15 фев 2012, 16:44
Возраст: 28
Спасибо: 6565 / 2130
Сообщения: 43672

«Напиться, чтобы выжить!»

Грэбберсы / Grabbers


Страна: Великобритания, Ирландия
Жанр:Фантастика, Триллер, Комедия
Год выпуска: 2012
Продолжительность: 01:33:49
Перевод: Профессиональный (дублированный) (Лицензия)
Cубтитры: нет
Режиссер: Джон Райт / Jon Wright
В ролях: Рут Брэдли, Ричард Койл, Лалор Родди, Дэвид Пирс, Рассел Тоуви, Паскаль Скотт, Брона Галлахер, Луис Демпси, Клелия Мерфи

Описание: Когда на уединенном ирландском острове высаживаются кровожадные пришельцы, местные жители к собственной радости выясняют, что успешно бороться с монстрами все-таки можно: для этого необходимо всего лишь… хорошенько надраться и больше не просыхать.




Сэмпл: http://multi-up.com/797842

Качество видео: HDRip-AVC [BDRip 720p]
Формат видео: MKV
Видео: 1768 Кбит/сек, 868*368 (2,35:1), в 24,000 кадр/сек, AVC
Аудио: Russian, 384 Кбит/сек, 48,0 КГц, 16 бит, 6 канала(ов), AC-3

Автор рипа: S.T.A.L.K.E.R.2 (aka Stalker oK)

Общее
Уникальный идентификатор: 185019972438166763120715809069300841242 (0x8B318CEF108B14979E28F587AA6DFB1A)
Полное имя: Grebbersy_2012_HDRip_AVC_Dub.mkv
Формат: Matroska
Размер файла: 1,41 Гбайт
Продолжительность: 1 ч. 33 м.
Общий поток: 2152 Кбит/сек
Название фильма: Grabbers (2012) (rip by S.T.A.L.K.E.R.2)
Дата кодирования: UTC 2012-12-02 06:47:14
Программа кодирования: mkvmerge v5.6.0 ('Kenya Kane') built on May 27 2012 16:44:04
Библиотека кодирования: libebml v1.2.3 + libmatroska v1.3.0

Видео
Идентификатор: 1
Формат: AVC
Формат/Информация: Advanced Video Codec
Профиль формата: High@L4.1
Параметр CABAC формата: Да
Параметр ReFrames формата: 10 кадры
Идентификатор кодека: V_MPEG4/ISO/AVC
Продолжительность: 1 ч. 33 м.
Битрейт: 1768 Кбит/сек
Ширина: 868 пикс.
Высота: 368 пикс.
Соотношение сторон: 2,35:1
Частота кадров: 24,000 кадр/сек
Цветовое пространство: YUV
Подвыборка цветности: 4:2:0
Битовая глубина: 8 бит
Тип развёртки: Прогрессивная
Бит/(Пиксели*Кадры): 0.231
Размер потока: 1,13 Гбайт (80%)
Библиотека кодирования: x264 core 125 r2200 999b753
Настройки программы: cabac=1 / ref=10 / deblock=1:-2:-1 / analyse=0x3:0x113 / me=umh / subme=10 / psy=1 / psy_rd=1.00:0.05 / mixed_ref=1 / me_range=32 / chroma_me=1 / trellis=2 / 8x8dct=1 / cqm=0 / deadzone=21,11 / fast_pskip=0 / chroma_qp_offset=-3 / threads=3 / lookahead_threads=1 / sliced_threads=0 / nr=0 / decimate=0 / interlaced=0 / bluray_compat=0 / constrained_intra=0 / bframes=12 / b_pyramid=2 / b_adapt=2 / b_bias=0 / direct=1 / weightb=1 / open_gop=0 / weightp=2 / keyint=240 / keyint_min=24 / scenecut=40 / intra_refresh=0 / rc_lookahead=40 / rc=2pass / mbtree=1 / bitrate=1768 / ratetol=1.0 / qcomp=0.60 / qpmin=10 / qpmax=51 / qpstep=4 / cplxblur=20.0 / qblur=0.5 / vbv_maxrate=50000 / vbv_bufsize=50000 / nal_hrd=none / ip_ratio=1.40 / aq=1:1.00
Язык: English

Аудио
Идентификатор: 2
Формат: AC-3
Формат/Информация: Audio Coding 3
Расширение режима: CM (complete main)
Идентификатор кодека: A_AC3
Продолжительность: 1 ч. 33 м.
Вид битрейта: Постоянный
Битрейт: 384 Кбит/сек
Канал(ы): 6 канала(ов)
Расположение каналов: Front: L C R, Side: L R, LFE
Частота: 48,0 КГц
Битовая глубина: 16 бит
Метод сжатия: С потерями
Задержка видео: 950 мс.
Размер потока: 258 Мбайт (18%)
Заголовок: Dub - License
Язык: Russian








реклама партнёра


Вернуться к началу
 Профиль Отправить личное сообщение  
 
   Похожие торренты   Автор   Торрент   Размер 
В этой теме нет новых непрочитанных сообщений. Патруль времени / Predestination (ДБ) [Фантастика, Триллер, 2014] HDRip, Dub [Лицензия]

Dracon

9 | 3

744.83 МБ

В этой теме нет новых непрочитанных сообщений. Вне/себя / Self/less (Тарсем Сингх) [фантастика, триллер, детектив, 2015] HDRip, Dub [Лицензия]

Dracon

6240 | 262

2.05 ГБ

В этой теме нет новых непрочитанных сообщений. Кловерфилд, 10 / 10 Cloverfield Lane [триллер, фантастика, детектив, 2016] HDRip, Dub [Лицензия]

salma3

226 | 34

1.45 ГБ

В этой теме нет новых непрочитанных сообщений. Оставленные / Left Behind [фантастика, триллер, драма, 2014] HDRip, Dub [лицензия] [iPad]

salma3

76 | 8

1.42 ГБ

В этой теме нет новых непрочитанных сообщений. Чужой: Завет / Alien: Covenant [ужасы, фантастика, триллер, 2017] HDRip, Dub [Лицензия]

salma3

339 | 47

757.63 МБ

В этой теме нет новых непрочитанных сообщений. Оставшийся / The Remaining (Кэйси Ла Скала) [Фантастика, Ужасы, Триллер, 2014] HDRip, Mvo [Лицензия]

Dracon

7 | 3

1.37 ГБ

В этой теме нет новых непрочитанных сообщений. Хитмэн: Агент 47 / Hitman: Agent 47 (Александр Бах) [боевик, фантастика, триллер, 2015] HDRip, Dub [Лицензия]

Dracon

7097 | 287

1.37 ГБ


Начать новую тему Ответить на тему  [ 1 сообщение ] 




Для Мосгорсуда, Роскомнадзора и рекламодателей:: mosgorsud-torrent[собачка]yandex.ru