Торрент файл
скачать торрент магнет ссылка Добавлен: 25 ноя 2012, 10:52
Размер: 742.88 МБ
Сидеров: 5
Личеров: 1
Статус: (Dracon)
Автор

СообщениеДобавлено: 25 ноя 2012, 10:52 

Не в сети
Зам. Админа
Аватара пользователя
Дата регистрации:
02 дек 2010, 12:39
Спасибо: 12461 / 214
Сообщения: 27968


Страна: США
Студия: BCDF Pictures, Gary Sanchez Productions
Жанр: комедия
Год выпуска: 2012
Продолжительность: 01:27:01

Перевод: Профессиональный (дублированный) [Лицензия]
Cубтитры: нет
Режиссер: Лесли Хэдланд / Leslye Headland

В ролях: Кирстен Данст, Айла Фишер, Лиззи Каплан, Джеймс Марсден, Кайл Борнхеймер, Ребел Уилсон, Адам Скотт, Энди Раннеллс, Хэйес МакАртур, Элла Рэй Пек...

Описание: Три симпатичные и острые на язык незамужние подруги приезжают на свадьбу бывшей одноклассницы-толстушки и… случайно портят впечатляющее своими размерами подвенечное платье невесты. А ведь завтра ей идти к алтарю! За одну ночь холостячкам предстоит проделать головокружительное путешествие по стрип-клубам, туалетным комнатам и мужским спальням во имя спасения свадьбы той, которую они терпеть не могут.



Автор рипа: _Flash



Качество видео: HDRip
Формат видео: AVI

Видео: XviD, 704x288, 23.976 fps, 1055kbps
Аудио: MP3, 2ch, 128kbps
General
Complete name: D:Docum and SettingsAdminРабочий столholostjachki.Rip By _Flash.avi
Format: AVI
Format/Info: Audio Video Interleave
File size: 743 MiB
Duration: 1h 27mn
Overall bit rate: 1 192 Kbps
Writing application: VirtualDubMod 1.5.10.3 | http://www.virtualdub-fr.org || (build 2550/release)
Writing library: VirtualDubMod build 2550/release

Video
ID: 0
Format: MPEG-4 Visual
Format profile: Advanced Simple@L5
Format settings, BVOP: 1
Format settings, QPel: No
Format settings, GMC: No warppoints
Format settings, Matrix: Custom
Codec ID: XVID
Codec ID/Hint: XviD
Duration: 1h 27mn
Bit rate: 1 055 Kbps
Width: 704 pixels
Height: 288 pixels
Display aspect ratio: 2.40:1
Frame rate: 23.976 fps
Color space: YUV
Chroma subsampling: 4:2:0
Bit depth: 8 bits
Scan type: Progressive
Compression mode: Lossy
Bits/(Pixel*Frame): 0.217
Stream size: 657 MiB (88%)
Writing library: XviD 64

Audio
ID: 1
Format: MPEG Audio
Format version: Version 1
Format profile: Layer 3
Codec ID: 55
Codec ID/Hint: MP3
Duration: 1h 27mn
Bit rate mode: Constant
Bit rate: 128 Kbps
Channel(s): 2 channels
Sampling rate: 48.0 KHz
Compression mode: Lossy
Stream size: 79.8 MiB (11%)
Alignment: Aligned on interleaves
Interleave, duration: 42 ms (1.00 video frame)
Interleave, preload duration: 504 ms
Writing library: L3.99r
Encoding settings: -m s -V 4 -q 2 -lowpass 17 -b 128





реклама партнёра


Вернуться к началу
 Профиль  
 
   Похожие торренты   Автор   Торрент   Размер 
В этой теме нет новых непрочитанных сообщений. Холостячки в Вегасе / Best Night Ever [Комедия, 2014] HDRip-AVC, MVO [Лицензия]

hobbit1021

316 | 22

2.3 ГБ

В этой теме нет новых непрочитанных сообщений. Холостячки в Вегасе / Best Night Ever [Комедия, 2014] DVDRip, MVO [Лицензия]

hobbit1021

823 | 28

1.37 ГБ

В этой теме нет новых непрочитанных сообщений. Холостячки в Вегасе / Best Night Ever [комедия, 2014] DVD5 R5, MVO [Лицензия]

hobbit1021

87 | 8

3.44 ГБ

В этой теме нет новых непрочитанных сообщений. Холостячки в Вегасе / Best Night Ever [Комедия, 2014] WEB-DLRip, Dub

salma3

1977 | 61

1.37 ГБ

В этой теме нет новых непрочитанных сообщений. Холостячки в Вегасе / Best Night Ever [Комедия, 2014] WEB-DLRip-AVC, Dub

salma3

210 | 4

1.45 ГБ

В этой теме нет новых непрочитанных сообщений. Полетта / Paulette [комедия, 2012] HDRip, Dub [Лицензия]

Dracon

403 | 17

1.46 ГБ

В этой теме нет новых непрочитанных сообщений. Не входить, мы не одеты / Do Not Disturb [Комедия, 2012] HDRip, Mvo [Лицензия]

salma3

744 | 23

1.46 ГБ


Начать новую тему Ответить на тему  [ 1 сообщение ] 




Для Мосгорсуда, Роскомнадзора и рекламодателей:: mosgorsud-torrent[собачка]yandex.ru