Торрент файл
скачать торрент магнет ссылка Добавлен: 19 ноя 2012, 21:37
Размер: 1.37 ГБ
Сидеров: 3
Личеров: 3
Статус: (salma3)
Автор

СообщениеДобавлено: 19 ноя 2012, 21:37 

В сети
Супермодератор
Аватара пользователя
Дата регистрации:
15 фев 2012, 16:44
Возраст: 27
Спасибо: 5132 / 2089
Сообщения: 17376


Переполох / Ruckus

Год выхода: 1981
Жанр: Триллер
Режиссер: Макс Кливен
В ролях: Дерк Бенедикт, Бен Джонсон, Линда Блэр, Мэтт Кларк, Ричард Фарнсуорт

О фильме:
Кайл Хэнсон — вьетнамский ветеран, оказавшийся волей случая в Алабаме. Когда Кайл останавливается в своём потёртом френче в небольшом городке, чтобы перекусить, к нему начинают докапываться местные хулиганы. Кайл, используя свой боевой опыт, даёт отпор местным парням. С этого времени Кайл становится врагом, для тех кого он невольно обидел. Местные парни объявляют его в негласный розыск, они хотят найти его, чтобы ему отомстить. Приют Кайлу предоставляет одна женщина Дженни Белоус, муж которой пропал безвести во Вьетнаме.



Страна: США
Студия: International vision.INC
Продолжительность: 01:31:57
Перевод: Авторский, одноголосый закадровый(А.Михалев)

Файл
Кодек: XviD
Качество: DVDRip
Видео: 656x368, 1812 kbps, 23.976 fps
Звук: AC3, 2 ch, 320 kbps,48.0 khz

General
Complete name : C:Perepoloch.1981.XviD.DVDRip.avi
Format : AVI
Format/Info : Audio Video Interleave
File size : 1.37 GiB
Duration : 1h 31mn 57s
Overall bit rate : 2 139 Kbps
Writing application : VirtualDubMod 1.5.4.1 (build 2178/release)
Writing library : VirtualDubMod build 2178/release
Video #0
ID : 0
Format : MPEG-4 Visual
Format profile : Advanced Simple@L5
Format settings, BVOP : 1
Format settings, QPel : No
Format settings, GMC : No warppoints
Format settings, Matrix : Custom
Codec ID : XVID
Codec ID/Hint : XviD
Duration : 1h 31mn 57s
Bit rate : 1 812 Kbps
Width : 656 pixels
Height : 368 pixels
Display aspect ratio : 16:9
Frame rate : 23.976 fps
Color space : YUV
Chroma subsampling : 4:2:0
Bit depth : 8 bits
Scan type : Progressive
Compression mode : Lossy
Bits/(Pixel*Frame) : 0.313
Stream size : 1.16 GiB (85%)
Writing library : XviD 64
Audio #1
ID : 1
Format : AC-3
Format/Info : Audio Coding 3
Mode extension : CM (complete main)
Format settings, Endianness : Big
Codec ID : 2000
Duration : 1h 31mn 57s
Bit rate mode : Constant
Bit rate : 320 Kbps
Channel(s) : 2 channels
Channel positions : Front: L R
Sampling rate : 48.0 KHz
Bit depth : 16 bits
Compression mode : Lossy
Stream size : 210 MiB (15%)
Alignment : Split accross interleaves
Interleave, duration : 96 ms (2.30 video frames)
Interleave, preload duration : 96 ms



, , , ,


Релиз от:




реклама партнёра


Вернуться к началу
 Профиль Отправить личное сообщение  
 
   Похожие торренты   Автор   Торрент   Размер 
В этой теме нет новых непрочитанных сообщений. The Ruckus - Nothing To Lose [2012, Hard Rock, MP3]

PriZraK

0 | 2

88.62 МБ

В этой теме нет новых непрочитанных сообщений. Дива / Diva [Триллер, 1981] DVDRip, Mvo

salma3

13 | 4

1.45 ГБ

В этой теме нет новых непрочитанных сообщений. Переполох / Rabhasa [Комедия, мелодрама, 2014] DVDRip, Dvo+Sub

salma3

7 | 2

1.81 ГБ

В этой теме нет новых непрочитанных сообщений. Команда Шарки / Машина Шарки/ Система Шарки / Sharky's Machine [боевик, триллер, драма, криминал, 1981] DVDRip, Mvo [Варус-Видео]

salma3

11 | 4

1.45 ГБ

В этой теме нет новых непрочитанных сообщений. Око за око / An Eye for an Eye [Боевик, триллер, криминал, 1981] BDRip-AVC, Mvo

salma3

19 | 0

1.46 ГБ

В этой теме нет новых непрочитанных сообщений. Око за око / An Eye for an Eye [боевик, триллер, криминал, приключения, 1981] BDRip, Mvo+Dvo

salma3

2 | 0

2.18 ГБ

В этой теме нет новых непрочитанных сообщений. Прокол / Blow Out [триллер, детектив, 1981] BDRip, Avo

salma3

3 | 5

1.46 ГБ


Начать новую тему Ответить на тему  [ 1 сообщение ] 




Для Мосгорсуда, Роскомнадзора и рекламодателей:: mosgorsud-torrent[собачка]yandex.ru