Торрент файл
скачать торрент магнет ссылка Добавлен: 18 ноя 2012, 17:15
Размер: 1.97 ГБ
Сидеров: 25
Личеров: 7
Статус: (salma3)
Автор

СообщениеДобавлено: 18 ноя 2012, 17:15 

В сети
Супермодератор
Аватара пользователя
Дата регистрации:
15 фев 2012, 16:44
Возраст: 28
Спасибо: 6579 / 2144
Сообщения: 44050

Наёмные убийцы / Contract Killers

Год выхода: 2009
Жанр: Боевик
Режиссер: Джастин Б. Родс
В ролях: Фрида Шоу, Ник Манкузо, Ретт Джиллз, Кристиан Уиллис, Дж. Энтони Джозеф, Вольф Музер, Ли Шерман, Пол Крэм, Джастин Смит

О фильме:
Фильм переносит зрителей в мир, в котором молодая девушка бежит от крупной компании, где она когда-то работала, на красивый и процветающий карибский остров. Девушка знает секреты компании, и является свидетелем ее причастности к мошенничеству. В игру вступает наемный убийца Иосиф, житель острова и наемник компании, чтобы устранить Джейн…




Страна: США, Dirty Martini Productions, Galt Alliance Films
Продолжительность: 01:26:38
Перевод: Профессиональный двухголосый
Дата релиза: 18.11.2012

Файл
Кодек: H.264
Качество: HDRip (AVC)
Видео: MPEG-4 AVC, 2500 Кбит/с, 1024x576, 23.976 кадр/с
Звук:
Аудио 1: Русский (AC3, 6 ch, 320 Кбит/с)
Аудио 2: Английский (AC3, 6 ch, 448 Кбит/с)
Семпл
Общее
Уникальный идентификатор: 192704584292941729327247342751101465536 (0x90F98D8CE39C185AB0F1E5B12487B3C0)
Полное имя: G:1Naemnye.ubijcy.2009.x264.HDRip.(AVC).ExKinoRay.mkv
Формат: Matroska
Версия формата: Version 2
Размер файла: 1,97 Гбайт
Продолжительность: 1 ч. 26 м.
Общий поток: 3255 Кбит/сек
Название фильма: Naemnye.ubijcy.2009.x264.HDRip.(AVC).ExKinoRay
Дата кодирования: UTC 2012-11-18 12:15:50
Программа кодирования: mkvmerge v4.0.0 ('The Stars were mine') сборка от Jun6 2010 16:18:42
Библиотека кодирования: libebml v1.0.0 + libmatroska v1.0.0

Видео
Идентификатор: 1
Формат: AVC
Формат/Информация: Advanced Video Codec
Профиль формата: High@L4.1
Параметр CABAC формата: Да
Параметр ReFrames формата: 8 кадров
Идентификатор кодека: V_MPEG4/ISO/AVC
Продолжительность: 1 ч. 26 м.
Битрейт: 2500 Кбит/сек
Ширина: 1024 пикселя
Высота: 576 пикселей
Соотношение сторон: 16:9
Частота кадров: 23,976 кадра/сек
Цветовое пространство: YUV
Субдискретизация насыщенности: 4:2:0
Битовая глубина: 8 бит
Тип развёртки: Прогрессивная
Бит/(Пиксели*Кадры): 0.177
Размер потока: 1,47 Гбайт (74%)
Заголовок: Rip by Enigma-Vladislav71
Библиотека кодирования: x264 core 116 r2074 2641b9e
Настройки программы: cabac=1 / ref=8 / deblock=1:-2:-2 / analyse=0x3:0x133 / me=umh / subme=11 / psy=1 / psy_rd=1.00:0.00 / mixed_ref=1 / me_range=48 / chroma_me=1 / trellis=2 / 8x8dct=1 / cqm=0 / deadzone=21,11 / fast_pskip=0 / chroma_qp_offset=-2 / threads=3 / sliced_threads=0 / nr=0 / decimate=0 / interlaced=0 / bluray_compat=0 / constrained_intra=0 / bframes=8 / b_pyramid=2 / b_adapt=2 / b_bias=0 / direct=3 / weightb=1 / open_gop=0 / weightp=2 / keyint=240 / keyint_min=23 / scenecut=40 / intra_refresh=0 / rc=2pass / mbtree=0 / bitrate=2500 / ratetol=1.0 / qcomp=0.60 / qpmin=10 / qpmax=51 / qpstep=4 / cplxblur=20.0 / qblur=0.5 / ip_ratio=1.40 / pb_ratio=1.30 / aq=2:1.00
Язык: English
Default: Нет
Forced: Нет

Аудио #1
Идентификатор: 2
Формат: AC-3
Формат/Информация: Audio Coding 3
Расширение режима: CM (complete main)
Идентификатор кодека: A_AC3
Продолжительность: 1 ч. 26 м.
Вид битрейта: Постоянный
Битрейт: 320 Кбит/сек
Каналы: 6 каналов
Расположение каналов: Front: L C R, Side: L R, LFE
Частота: 48,0 КГц
Битовая глубина: 16 бит
Метод сжатия: С потерями
Размер потока: 198 Мбайт (10%)
Язык: Russian
Default: Да
Forced: Нет

Аудио #2
Идентификатор: 3
Формат: AC-3
Формат/Информация: Audio Coding 3
Расширение режима: CM (complete main)
Идентификатор кодека: A_AC3
Продолжительность: 1 ч. 26 м.
Вид битрейта: Постоянный
Битрейт: 448 Кбит/сек
Каналы: 6 каналов
Расположение каналов: Front: L C R, Side: L R, LFE
Частота: 48,0 КГц
Битовая глубина: 16 бит
Метод сжатия: С потерями
Размер потока: 278 Мбайт (14%)
Язык: English
Default: Нет
Forced: Нет



Релиз от:

=




реклама партнёра


Вернуться к началу
 Профиль Отправить личное сообщение  
 
   Похожие торренты   Автор   Торрент   Размер 
В этой теме нет новых непрочитанных сообщений. Наёмные убийцы / Contract Killers [боевик, триллер, 2008] BDRip 1080p, Dvo

salma3

0 | 0

8.33 ГБ

В этой теме нет новых непрочитанных сообщений. Наемные убийцы / Assassins [боевик, триллер, криминал, 1995] HDRip, Dub

salma3

60 | 16

2.17 ГБ

В этой теме нет новых непрочитанных сообщений. Наемные убийцы / Assassins [Боевик, триллер, криминал, 1995] BDRip-AVC, Dub

salma3

19 | 0

745.85 МБ

В этой теме нет новых непрочитанных сообщений. Наемные убийцы / Assassins [Боевик, триллер, криминал, 1995] BDRip-AVC, Dub

salma3

38 | 11

1.46 ГБ

В этой теме нет новых непрочитанных сообщений. Наемные убийцы / Assassins [Боевик, триллер, криминал, 1995] BDRip 720p, Dub

salma3

1 | 32

7.75 ГБ

В этой теме нет новых непрочитанных сообщений. Наемные убийцы / Assassins [Боевик, триллер, криминал, 1995] BDRemux 1080p, Dub

salma3

4 | 6

26.38 ГБ

В этой теме нет новых непрочитанных сообщений. Убийцы зомби: кладбище слонов / Zombie Killers: Elephant's Graveyard [Ужасы, 2015] HDRip, Avo

salma3

240 | 19

1.09 ГБ


Начать новую тему Ответить на тему  [ 1 сообщение ] 




Для Мосгорсуда, Роскомнадзора и рекламодателей:: mosgorsud-torrent[собачка]yandex.ru