Торрент файл
скачать торрент магнет ссылка Добавлен: 15 ноя 2012, 15:31
Размер: 1.52 ГБ
Сидеров: 76
Личеров: 7
Статус: (Dracon)
Автор

СообщениеДобавлено: 15 ноя 2012, 15:31 

Не в сети
Зам. Админа
Аватара пользователя
Дата регистрации:
02 дек 2010, 12:39
Спасибо: 12460 / 214
Сообщения: 27968
Год выпуска: 2012
Страна: Германия
Студия: Hessen-Invest Film, Magna Mana FX, Magna Mana Production
Жанр:фантастика
Продолжительность: 01:30:04

Перевод: Профессиональный (многоголосый закадровый) лицензия
Субтитры: нет
Оригинальная аудиодорожка: нет

Режиссер: Джек Мойк / Jack Moik

В ролях:Андреас Аренс Caspar Arnhold Michael Arnold Mirjam Barner Björn Bechstein Boris Belkine Birgit Blaufuß Rafaela Bonato Кристина Даль Кэнтон Стефани Даль Кэнтон...

Описание: События разворачиваются в далеком будущем. Здесь идет бесконечная война между множеством колоний, которые давно перестали безоговорочно выполнять приказы метрополии и превратились в могущественные государства. Ожесточенное противостояние между ними длится уже более 50 лет, а количество жертв приблизилось к миллиарду. В этом аду летчиком-истребителем работает Рик Уолкер, которому поручают сверхсекретное задание: доставить некую женщину к месту, где состоится очередная серия переговоров о прекращении военных действий…






Исходник: BD 1080p
Тип релиза: HDRip
Контейнер: AVI

Видео: 720x400 (16:9), 25 fps, XviD ~ 1965 kbps avg, 0.273 bit/pixel
Аудио: 48 kHz, AC3, 6 ch, 448.00 kbps Русский

Раздача от:

Общее
Полное имя: Zvezdnyj.krejser.Najdenion.2010.HDRip.avi
Формат: AVI
Формат/Информация: Audio Video Interleave
Размер файла: 1,52 Гбайт
Продолжительность: 1 ч. 30 м.
Общий поток: 2422 Кбит/сек
Программа кодирования: VirtualDubModRus 1.5.10.2 (build 2542/release)
Библиотека кодирования: VirtualDubMod build 2542/release

Видео
Идентификатор: 0
Формат: MPEG-4 Visual
Профиль формата: Advanced Simple@L5
Параметр BVOP формата: 2
Параметр QPel формата: Нет
Параметр GMC формата: Без точки перехода
Параметр матрицы формата: Default (H.263)
Идентификатор кодека: XVID
Идентификатор кодека/Подсказка: XviD
Продолжительность: 1 ч. 30 м.
Битрейт: 1965 Кбит/сек
Ширина: 720 пикселей
Высота: 400 пикселей
Соотношение сторон: 16:9
Частота кадров: 25,000 кадров/сек
Цветовое пространство: YUV
Субдискретизация насыщенности: 4:2:0
Битовая глубина: 8 бит
Тип развёртки: Прогрессивная
Метод сжатия: С потерями
Бит/(Пиксели*Кадры): 0.273
Размер потока: 1,24 Гбайт (81%)
Библиотека кодирования: XviD 63

Аудио
Идентификатор: 1
Формат: AC-3
Формат/Информация: Audio Coding 3
Расширение режима: CM (complete main)
Идентификатор кодека: 2000
Продолжительность: 1 ч. 30 м.
Вид битрейта: Постоянный
Битрейт: 448 Кбит/сек
Каналы: 6 каналов
Расположение каналов: Front: L C R, Side: L R, LFE
Частота: 48,0 КГц
Битовая глубина: 16 бит
Метод сжатия: С потерями
Размер потока: 289 Мбайт (18%)
Выравнивание: Разделение по промежуткам
Продолжительность промежутка: 40мс. (1,00 видеокадр)
Время предзагрузки промежутка: 500мс






реклама партнёра


Вернуться к началу
 Профиль  
 
   Похожие торренты   Автор   Торрент   Размер 
В этой теме нет новых непрочитанных сообщений. Звёздный крейсер: Апокалипсис / Starship: Apocalypse [Фантастика, боевик, 2014] WEB-DLRip, Dvo

salma3

266 | 6

1.37 ГБ

В этой теме нет новых непрочитанных сообщений. Звездный крейсер: Восстание / Starship: Rising [Фантастика, Боевик, 2014] DVDRip, avo

Dracon

45 | 2

1.41 ГБ

В этой теме нет новых непрочитанных сообщений. Звёздный крейсер Галактика / Battlestar Galactica / 1-4 сезоны 1-74 серии из 74 + Минисериал [фантастика, боевик, драма, приключения, 2003-2009] HDRip, Mvo [LostFilm]

salma3

25 | 36

63.06 ГБ

В этой теме нет новых непрочитанных сообщений. Звездный десант 3: Мародер / Starship Troopers 3: Marauder [фантастика, боевик, приключения, 2008] BDRip 720p, Mvo+SUB

salma3

73 | 8

5.52 ГБ

В этой теме нет новых непрочитанных сообщений. Звездный десант 3: Мародер / Starship Troopers 3: Marauder [фантастика, боевик, приключения, 2008] BDRip 1080p, Mvo

salma3

38 | 5

11.64 ГБ

В этой теме нет новых непрочитанных сообщений. Звездный путь: Восстание / Star Trek: Insurrection [фантастика, боевик, триллер, приключения, 1998] BDRip 1080p, 3Mvo+Avo+Sub

salma3

39 | 33

9.02 ГБ

В этой теме нет новых непрочитанных сообщений. Звездный путь: Энтерпрайз / Star Trek: Enterprise / 1 сезон 1-26 серии из 26 [фантастика, боевик, приключения, 2001] BDRip 720p, Mvo+Sub [СТС]

salma3

4 | 6

42.78 ГБ


Начать новую тему Ответить на тему  [ 1 сообщение ] 




Для Мосгорсуда, Роскомнадзора и рекламодателей:: mosgorsud-torrent[собачка]yandex.ru