Торрент файл
скачать торрент магнет ссылка Добавлен: 14 ноя 2012, 09:40
Размер: 1.46 ГБ
Сидеров: 3
Личеров: 1
Статус: (Dracon)
Автор

СообщениеДобавлено: 14 ноя 2012, 09:40 

Не в сети
Зам. Админа
Аватара пользователя
Дата регистрации:
02 дек 2010, 12:39
Спасибо: 12461 / 214
Сообщения: 27968
«Где правит адреналин, нет места для страха»



Год выпуска: 2012
Страна: США
Студия: Crave Films, Emmett/Furla Films, Envision Entertainment Corporation
Жанр:триллер, драма, криминал
Продолжительность: 01:44:09

Перевод: Профессиональный (дублированный)
Субтитры: нет
Оригинальная аудиодорожка: нет

Режиссер: Дэвид Эйер / David Ayer

В ролях:Джейк Джилленхол, Майкл Пенья, Анна Кендрик, Натали Мартинез, Америка Феррера, Фрэнк Грилло, Дэвид Харбор, Кле Шахид Слоун, Джейм Фицсаймонс, Коуди Хорн...

Роли дублировали: Александр Коврижных, Константин Карасик, Вероника Саркисова, Александр Рахленко, Александра Остроухова...

Описание: Они были лучшими копами Лос-Анджелеса. Бесстрашные и везучие напарники, они стали друг другу как братья. Но однажды парни залезли в самое логово преступного мира города, по-глупому подставились и сами стали мишенью… Кто успеет первым разрядить обойму?...





Исходник: DVD9 R5
Тип релиза: DVDRip
Контейнер: AVI

Видео: 720x400 (16:9), 25 fps, XviD ~ 1610 kbps avg, 0.224 bit/pixel
Аудио: 48 kHz, AC3, 6 ch, 384.00 kbps

Раздача от:

Общее
Полное имя: Patrul.2012.DVDRip_[Youtracker]_by_avproh.avi
Формат: AVI
Формат/Информация: Audio Video Interleave
Размер файла: 1,46 Гбайт
Продолжительность: 1 ч. 44 м.
Общий поток: 2003 Кбит/сек
Программа кодирования: VirtualDubMod 1.5.10.3 | http://www.virtualdub-fr.org || (build 2550/release)
Библиотека кодирования: VirtualDubMod build 2550/release

Видео
Идентификатор: 0
Формат: MPEG-4 Visual
Профиль формата: Advanced Simple@L5
Параметр BVOP формата: 1
Параметр QPel формата: Нет
Параметр GMC формата: Без точки перехода
Параметр матрицы формата: Выборочная
Идентификатор кодека: XVID
Идентификатор кодека/Подсказка: XviD
Продолжительность: 1 ч. 44 м.
Битрейт: 1610 Кбит/сек
Ширина: 720 пикселей
Высота: 400 пикселей
Соотношение сторон: 16:9
Частота кадров: 25,000 кадров/сек
Цветовое пространство: YUV
Субдискретизация насыщенности: 4:2:0
Битовая глубина: 8 бит
Тип развёртки: Прогрессивная
Метод сжатия: С потерями
Бит/(Пиксели*Кадры): 0.224
Размер потока: 1,17 Гбайт (80%)
Библиотека кодирования: XviD 65

Аудио
Идентификатор: 1
Формат: AC-3
Формат/Информация: Audio Coding 3
Расширение режима: CM (complete main)
Идентификатор кодека: 2000
Продолжительность: 1 ч. 44 м.
Вид битрейта: Постоянный
Битрейт: 384 Кбит/сек
Каналы: 6 каналов
Расположение каналов: Front: L C R, Side: L R, LFE
Частота: 48,0 КГц
Битовая глубина: 16 бит
Метод сжатия: С потерями
Размер потока: 286 Мбайт (19%)
Выравнивание: Разделение по промежуткам
Продолжительность промежутка: 40мс. (1,00 видеокадр)
Время предзагрузки промежутка: 500мс






реклама партнёра


Вернуться к началу
 Профиль  
 
   Похожие торренты   Автор   Торрент   Размер 
В этой теме нет новых непрочитанных сообщений. Тот, кто меня бережет / Someone to Watch Over Me [триллер, драма, мелодрама, криминал, 1987] WEB-DL 720p, Dvo

salma3

69 | 5

3.61 ГБ

В этой теме нет новых непрочитанных сообщений. Патруль времени / Predestination (ДБ) [Фантастика, Триллер, 2014] HDRip, Dub [Лицензия]

Dracon

9 | 2

744.83 МБ

В этой теме нет новых непрочитанных сообщений. Watch Dogs: Digital Deluxe Edition [Action, 3D, 2014] [Лицензия]

Dracon

151 | 18

22.07 ГБ

В этой теме нет новых непрочитанных сообщений. Перекрестный огонь / Bad Country [триллер, драма, детектив, боевик, криминал, 2014] DVDRip, Mvo [Лицензия]

Dracon

1455 | 57

1.46 ГБ

В этой теме нет новых непрочитанных сообщений. Призрачный патруль / R.I.P.D. [Комедия, фантастика, боевик, 2013] HDRip -AVC, Dub+Sub [Лицензия]

Dracon

17 | 2

1.45 ГБ

В этой теме нет новых непрочитанных сообщений. Смерть со спецэффектами / Freaky Deaky [триллер, криминал, комедия, 2012] HDRip, Mvo [Лицензия]

Dracon

118 | 4

1.46 ГБ

В этой теме нет новых непрочитанных сообщений. Петля времени / Looper [фантастика, боевик, триллер, криминал, 2012] BDRip 720p, Dub+Avo [Лицензия]

salma3

74 | 4

4.37 ГБ


Начать новую тему Ответить на тему  [ 1 сообщение ] 




Для Мосгорсуда, Роскомнадзора и рекламодателей:: mosgorsud-torrent[собачка]yandex.ru