Торрент файл
скачать торрент магнет ссылка Добавлен: 13 ноя 2012, 01:22
Размер: 1.45 ГБ
Сидеров: 8
Личеров: 3
Статус: (salma3)
Автор

СообщениеДобавлено: 13 ноя 2012, 01:22 

Не в сети
Супермодератор
Аватара пользователя
Дата регистрации:
15 фев 2012, 16:44
Возраст: 27
Спасибо: 5146 / 2090
Сообщения: 17514
Год выпуска: 2008
Страна: США
Студия: Groundswell Productions, QED International
Жанр:драма, комедия, приключения
Продолжительность: 01:32:27
Перевод: Профессиональный (многоголосый, закадровый)
Субтитры: нет
Оригинальная аудиодорожка: английский
Режиссер: Роусон Маршалл Тёрбер / Rawson Marshall Thurber
В ролях:Омид Абтахи, Сет Адамс, Джек Баун, Аарон Бернард, Николас Брэйди, Jarid Faubel, Джон Фостер, Кейт Грегори, Джефф Хочендонер, Кэти Дженсен...

Описание: Последнее лето юности Арта Бехштейна — последнее лето юности его друзей. Юный фантазер Арт не оправдывает ожиданий своего отца, влиятельного и благонамеренного мафиози. Арт постоянно заводит «неподходящие» знакомства. До поры до времени он не допускает своих бесшабашных друзей в мир Семьи, но вот самый бесшабашный прорывает заслон и переворачивает жизнь Арта с ног на голову…




Исходник: DVD5 R5
Тип релиза: DVDRip-AVC
Контейнер: MKV
Видео: 720x426@1024x426 (2.40:1), 25 fps, H264 ~ 1356 kbps avg, 0.177 bit/pixel
Аудио 1: 48 kHz, AC3, 6 ch, 448.00 kbps Русский
Аудио 2: 48 kHz, AC3, 6 ch, 448.00 kbps Английский

Раздача от:

Общее
Полное имя: Tayny.Pittsburga.2008.DVDRip-AVC_[Youtracker]_by_AVP Studio.mkv
Формат: Matroska
Версия формата: Version 2
Размер файла: 1,45 Гбайт
Продолжительность: 1 ч. 32 м.
Общий поток: 2253 Кбит/сек
Название фильма: Tayny.Pittsburga.2008.DVDRip-AVC_[Youtracker]_by_AVP Studio
Дата кодирования: UTC 2012-11-12 20:35:29
Программа кодирования: mkvmerge v5.8.0 ('No Sleep / Pillow') built on Sep2 2012 15:37:04
Библиотека кодирования: libebml v1.2.3 + libmatroska v1.3.0

Видео
Идентификатор: 1
Формат: AVC
Формат/Информация: Advanced Video Codec
Профиль формата: High@L4.1
Параметр CABAC формата: Да
Параметр ReFrames формата: 11 кадров
Идентификатор кодека: V_MPEG4/ISO/AVC
Продолжительность: 1 ч. 32 м.
Битрейт: 1356 Кбит/сек
Ширина: 720 пикселей
Высота: 426 пикселей
Соотношение сторон: 2,40:1
Частота кадров: 25,000 кадров/сек
Цветовое пространство: YUV
Субдискретизация насыщенности: 4:2:0
Битовая глубина: 8 бит
Тип развёртки: Прогрессивная
Бит/(Пиксели*Кадры): 0.177
Размер потока: 868 Мбайт (58%)
Заголовок: Источник DVD
Библиотека кодирования: x264 core 119 r2106 07efeb4
Настройки программы: cabac=1 / ref=11 / deblock=1:-2:-1 / analyse=0x3:0x113 / me=umh / subme=9 / psy=1 / psy_rd=1.00:0.20 / mixed_ref=1 / me_range=32 / chroma_me=1 / trellis=1 / 8x8dct=1 / cqm=0 / deadzone=21,11 / fast_pskip=0 / chroma_qp_offset=-3 / threads=3 / sliced_threads=0 / nr=0 / decimate=0 / interlaced=0 / bluray_compat=0 / constrained_intra=0 / bframes=8 / b_pyramid=2 / b_adapt=2 / b_bias=0 / direct=3 / weightb=1 / open_gop=0 / weightp=2 / keyint=250 / keyint_min=25 / scenecut=40 / intra_refresh=0 / rc_lookahead=60 / rc=2pass / mbtree=1 / bitrate=1356 / ratetol=1.0 / qcomp=0.60 / qpmin=0 / qpmax=69 / qpstep=4 / cplxblur=20.0 / qblur=0.5 / ip_ratio=1.40 / aq=1:1.00
Язык: English
Default: Да
Forced: Нет

Аудио #1
Идентификатор: 2
Формат: AC-3
Формат/Информация: Audio Coding 3
Расширение режима: CM (complete main)
Идентификатор кодека: A_AC3
Продолжительность: 1 ч. 32 м.
Вид битрейта: Постоянный
Битрейт: 448 Кбит/сек
Каналы: 6 каналов
Расположение каналов: Front: L C R, Side: L R, LFE
Частота: 48,0 КГц
Битовая глубина: 16 бит
Метод сжатия: С потерями
Размер потока: 296 Мбайт (20%)
Заголовок: Источник DVD
Язык: Russian
Default: Да
Forced: Нет

Аудио #2
Идентификатор: 3
Формат: AC-3
Формат/Информация: Audio Coding 3
Расширение режима: CM (complete main)
Идентификатор кодека: A_AC3
Продолжительность: 1 ч. 32 м.
Вид битрейта: Постоянный
Битрейт: 448 Кбит/сек
Каналы: 6 каналов
Расположение каналов: Front: L C R, Side: L R, LFE
Частота: 48,0 КГц
Битовая глубина: 16 бит
Метод сжатия: С потерями
Размер потока: 296 Мбайт (20%)
Заголовок: Источник DVD
Язык: English
Default: Нет
Forced: Нет

Меню
00:00:00.000: ru:00:00:00.000000000
00:05:00.000: :00:05:00.000000000
00:10:00.000: :00:10:00.000000000
00:15:00.000: :00:15:00.000000000
00:20:00.000: :00:20:00.000000000
00:25:00.000: :00:25:00.000000000
00:30:00.000: :00:30:00.000000000
00:35:00.000: :00:35:00.000000000
00:40:00.000: :00:40:00.000000000
00:45:00.000: :00:45:00.000000000
00:50:00.000: :00:50:00.000000000
00:55:00.000: :00:55:00.000000000
01:00:00.000: :01:00:00.000000000
01:05:00.000: :01:05:00.000000000
01:10:00.000: :01:10:00.000000000
01:15:00.000: :01:15:00.000000000
01:20:00.000: :01:20:00.000000000
01:25:00.000: :01:25:00.000000000
01:30:00.000: :01:30:00.000000000







реклама партнёра


Вернуться к началу
 Профиль Отправить личное сообщение  
 
   Похожие торренты   Автор   Торрент   Размер 
В этой теме нет новых непрочитанных сообщений. Тайны Лауры / The Mysteries of Laura [02x01-12 из 16] [комедия, криминал, детектив, 2015] WEBRip, Mvo [FOX Life]

salma3

14 | 1

5.15 ГБ

В этой теме нет новых непрочитанных сообщений. Тайны Лоры / The Mysteries of Laura / 1 сезон 1-17 серии из 22 [детектив, комедия, 2014] WEB-DLRip, Mvo [Kiitos.tv]

salma3

3 | 3

8.28 ГБ

В этой теме нет новых непрочитанных сообщений. Тайны Лауры / The Mysteries of Laura / 1 сезон 1-22 серии из 22 [комедия, криминал, детектив, 2014] WEB-DLRip, Mvo [FOX Life]

salma3

47 | 15

9.33 ГБ

В этой теме нет новых непрочитанных сообщений. Тайны Броукенвуда / The Brokenwood Mysteries [Season 1, Epizode 1-4 of 4] (Майк Смит, Джошуа Фриззелл, Майкл Херст) [драма, детектив, 2014] WEB-DLRip, Mvo

Dracon

3 | 0

2.73 ГБ

В этой теме нет новых непрочитанных сообщений. Тайны тёмной энергии / BBC. The Mysteries of Dark Energy [документальный, 2015] SATRip, Dub

salma3

69 | 6

695.51 МБ

В этой теме нет новых непрочитанных сообщений. Тайны Смолвиля / Smallville [S01-10] [фантастика, драма, мелодрама, приключения, 2001-2011] WEB-DLRip, DVDRip, HDRip, Mvo [СТС]

salma3

83 | 206

79.92 ГБ

В этой теме нет новых непрочитанных сообщений. Леди-детектив мисс Фрайни Фишер / Miss Fisher's Murder Mysteries / 2 сезон 1-13 серии из 13 [драма, криминал, детектив, 2012] DVDRip, Mvo

salma3

145 | 54

5.43 ГБ


Начать новую тему Ответить на тему  [ 1 сообщение ] 




Для Мосгорсуда, Роскомнадзора и рекламодателей:: mosgorsud-torrent[собачка]yandex.ru