Торрент файл
скачать торрент магнет ссылка Добавлен: 07 ноя 2012, 12:18
Размер: 1.46 ГБ
Сидеров: 17
Личеров: 4
Статус: (salma3)
Автор

СообщениеДобавлено: 07 ноя 2012, 12:18 

В сети
Супермодератор
Аватара пользователя
Дата регистрации:
15 фев 2012, 16:44
Возраст: 27
Спасибо: 5121 / 2089
Сообщения: 17319

Внутренняя сила / The Power Within


Год выхода: 1995
Жанр: Боевик
Режиссер: Арт Камачо / Art Camacho
В ролях: Тед Жан Робертс, Карен Валентайн, Кит Куган, Джон О`Харли, Уильям Забка, Джералд Окамура, Трэйси Мельхиор, П.Дж. Соулз, Ирвин Кийес

О фильме:От умирающего таинственного старика в восточных одеждах робкий и нерешительный подросток Стэн Драйер получает кольцо, наделенное мистической внутренней энергией. Точно такое же кольцо — в руках злодея Вонна. Только обладатель обоих колец сможет решить судьбу этого мира…



Выпущено: США / PM Entertainment Group Inc.
Продолжительность: 01:33:33
Перевод: Авторский (одноголосый, закадровый)- Андрей Гаврилов


Кодек: XviD - Совместимо с бытовыми DVD-плеерами
Качество: DVDRip (За исходный DVD-5 Спасибо loxaba))
Видео:720x552 (1.30:1), 25 fps, XviD build 65 ~2027 kbps avg, 0.20 bit/pixel
Аудио:48 kHz, AC3 Dolby Digital, 2/0 (L,R) ch, ~192 kbps


Доп. информация:Звуковая дорожка по уровню неравномерная, иногда плохо слышен перевод и небольшое эхо местами - взята с VHS и приведена в "божеский" вид crusstill, за что ему огромное Спасибо!


Общее
Полное имя: Vnutrennjj.sila.1995.XviD.DVDRip.AVO_SergV.avi
Формат: AVI
Формат/Информация: Audio Video Interleave
Размер файла: 1,46 Гбайт
Продолжительность: 1 ч. 33 м.
Общий поток: 2230 Кбит/сек
Название фильма: Vnutrennjj.sila.1995.XviD.DVDRip.AVO_SergV
Программа кодирования: VirtualDubMod 1.5.10.3 | http://www.virtualdub-fr.org || (build 2550/release)
Примечание: Рип от SergV

Видео
Идентификатор: 0
Формат: MPEG-4 Visual
Профиль формата: Advanced Simple@L5
Параметр BVOP формата: 2
Параметр QPel формата: Нет
Параметр GMC формата: Без точки перехода
Параметр матрицы формата: Default (MPEG)
Идентификатор кодека: XVID
Идентификатор кодека/Подсказка: XviD
Продолжительность: 1 ч. 33 м.
Битрейт: 2028 Кбит/сек
Ширина: 720 пикселей
Высота: 552 пикселя
Соотношение сторон: 4:3
Частота кадров: 25,000 кадров/сек
Цветовое пространство: YUV
Субдискретизация насыщенности: 4:2:0
Битовая глубина: 8 бит
Тип развёртки: Прогрессивная
Метод сжатия: С потерями
Бит/(Пиксели*Кадры): 0.204
Размер потока: 1,33 Гбайт (91%)
Библиотека кодирования: XviD 65

Аудио
Идентификатор: 1
Формат: AC-3
Формат/Информация: Audio Coding 3
Расширение режима: CM (complete main)
Параметр Endianness формата: Big
Идентификатор кодека: 2000
Продолжительность: 1 ч. 33 м.
Вид битрейта: Постоянный
Битрейт: 192 Кбит/сек
Каналы: 2 канала
Расположение каналов: Front: L R
Частота: 48,0 КГц
Битовая глубина: 16 бит
Метод сжатия: С потерями
Размер потока: 128 Мбайт (9%)
Выравнивание: Разделение по промежуткам
Продолжительность промежутка: 40мс. (1,00 видеокадр)
Время предзагрузки промежутка: 500мс.




Релиз от:




реклама партнёра


Вернуться к началу
 Профиль Отправить личное сообщение  
 
   Похожие торренты   Автор   Торрент   Размер 
В этой теме нет новых непрочитанных сообщений. Зловещая сила / Grim [ужасы, фэнтези, триллер, 1995] DVDRip, Dvo [Рен тв]

salma3

12 | 8

1.37 ГБ

В этой теме нет новых непрочитанных сообщений. Темная сила / Dark Power [Триллер, 2013] HDTVRip-AVC, Mvo

salma3

311 | 19

1.57 ГБ

В этой теме нет новых непрочитанных сообщений. Харизма - Сила и Вера [2011, Heavy, Power Metal, MP3]

PriZraK

1 | 2

152.68 МБ

В этой теме нет новых непрочитанных сообщений. Темная сила / Dark Power [Триллер, 2013] HDTVRip 720p, Mvo

salma3

171 | 9

2.34 ГБ

В этой теме нет новых непрочитанных сообщений. Первая сила / The First Power [Триллер, ужасы, 1990] BDRip, Avo [Гаврилов]

salma3

37 | 0

1.46 ГБ

В этой теме нет новых непрочитанных сообщений. Темная сила / Dark Power [Триллер, 2013] HDTVRip 1080p, Mvo

salma3

71 | 10

3.68 ГБ

В этой теме нет новых непрочитанных сообщений. Первая сила / The First Power [ужасы, триллер, криминал, 1990] BDRemux 1080p, Dvo+Avo+Sub

salma3

32 | 3

15.4 ГБ


Начать новую тему Ответить на тему  [ 1 сообщение ] 




Для Мосгорсуда, Роскомнадзора и рекламодателей:: mosgorsud-torrent[собачка]yandex.ru