Торрент файл
скачать торрент магнет ссылка Добавлен: 07 ноя 2012, 12:18
Размер: 1.46 ГБ
Сидеров: 17
Личеров: 4
Статус: (salma3)
Автор

СообщениеДобавлено: 07 ноя 2012, 12:18 

Не в сети
Супермодератор
Аватара пользователя
Дата регистрации:
15 фев 2012, 16:44
Возраст: 28
Спасибо: 6578 / 2143
Сообщения: 43995

Внутренняя сила / The Power Within


Год выхода: 1995
Жанр: Боевик
Режиссер: Арт Камачо / Art Camacho
В ролях: Тед Жан Робертс, Карен Валентайн, Кит Куган, Джон О`Харли, Уильям Забка, Джералд Окамура, Трэйси Мельхиор, П.Дж. Соулз, Ирвин Кийес

О фильме:От умирающего таинственного старика в восточных одеждах робкий и нерешительный подросток Стэн Драйер получает кольцо, наделенное мистической внутренней энергией. Точно такое же кольцо — в руках злодея Вонна. Только обладатель обоих колец сможет решить судьбу этого мира…



Выпущено: США / PM Entertainment Group Inc.
Продолжительность: 01:33:33
Перевод: Авторский (одноголосый, закадровый)- Андрей Гаврилов


Кодек: XviD - Совместимо с бытовыми DVD-плеерами
Качество: DVDRip (За исходный DVD-5 Спасибо loxaba))
Видео:720x552 (1.30:1), 25 fps, XviD build 65 ~2027 kbps avg, 0.20 bit/pixel
Аудио:48 kHz, AC3 Dolby Digital, 2/0 (L,R) ch, ~192 kbps


Доп. информация:Звуковая дорожка по уровню неравномерная, иногда плохо слышен перевод и небольшое эхо местами - взята с VHS и приведена в "божеский" вид crusstill, за что ему огромное Спасибо!


Общее
Полное имя: Vnutrennjj.sila.1995.XviD.DVDRip.AVO_SergV.avi
Формат: AVI
Формат/Информация: Audio Video Interleave
Размер файла: 1,46 Гбайт
Продолжительность: 1 ч. 33 м.
Общий поток: 2230 Кбит/сек
Название фильма: Vnutrennjj.sila.1995.XviD.DVDRip.AVO_SergV
Программа кодирования: VirtualDubMod 1.5.10.3 | http://www.virtualdub-fr.org || (build 2550/release)
Примечание: Рип от SergV

Видео
Идентификатор: 0
Формат: MPEG-4 Visual
Профиль формата: Advanced Simple@L5
Параметр BVOP формата: 2
Параметр QPel формата: Нет
Параметр GMC формата: Без точки перехода
Параметр матрицы формата: Default (MPEG)
Идентификатор кодека: XVID
Идентификатор кодека/Подсказка: XviD
Продолжительность: 1 ч. 33 м.
Битрейт: 2028 Кбит/сек
Ширина: 720 пикселей
Высота: 552 пикселя
Соотношение сторон: 4:3
Частота кадров: 25,000 кадров/сек
Цветовое пространство: YUV
Субдискретизация насыщенности: 4:2:0
Битовая глубина: 8 бит
Тип развёртки: Прогрессивная
Метод сжатия: С потерями
Бит/(Пиксели*Кадры): 0.204
Размер потока: 1,33 Гбайт (91%)
Библиотека кодирования: XviD 65

Аудио
Идентификатор: 1
Формат: AC-3
Формат/Информация: Audio Coding 3
Расширение режима: CM (complete main)
Параметр Endianness формата: Big
Идентификатор кодека: 2000
Продолжительность: 1 ч. 33 м.
Вид битрейта: Постоянный
Битрейт: 192 Кбит/сек
Каналы: 2 канала
Расположение каналов: Front: L R
Частота: 48,0 КГц
Битовая глубина: 16 бит
Метод сжатия: С потерями
Размер потока: 128 Мбайт (9%)
Выравнивание: Разделение по промежуткам
Продолжительность промежутка: 40мс. (1,00 видеокадр)
Время предзагрузки промежутка: 500мс.




Релиз от:




реклама партнёра


Вернуться к началу
 Профиль Отправить личное сообщение  
 
   Похожие торренты   Автор   Торрент   Размер 
В этой теме нет новых непрочитанных сообщений. Первая сила / The First Power [Триллер, ужасы, 1990] BDRip-AVC, Avo

salma3

32 | 6

2.33 ГБ

В этой теме нет новых непрочитанных сообщений. Первая сила / The First Power [Триллер, ужасы, 1990] BDRip, Avo [Гаврилов]

salma3

37 | 0

1.46 ГБ

В этой теме нет новых непрочитанных сообщений. Первая сила / The First Power [ужасы, триллер, криминал, 1990] BDRemux 1080p, Dvo+Avo+Sub

salma3

32 | 3

15.4 ГБ

В этой теме нет новых непрочитанных сообщений. Penthouse The Power Of Ass / Пентхаус: Сила Задницы (Студия: Penthouse.) (Danny Wylde, Katja Kassin, Phoneix Marie, Reena Sky, Mischa Brooks, Sheena Ryder) [2014 г., All Sex., DVDRip 404р]

friizze

4 | 4

864.78 МБ

В этой теме нет новых непрочитанных сообщений. Сила пятерых / Force: Five [боевик, 1981] DVDRip, Avo

salma3

21 | 3

1.46 ГБ

В этой теме нет новых непрочитанных сообщений. Внутренняя империя / Inland Empire (2006) BDRip от HQ-ViDEO

marya111

38 | 7

2.91 ГБ

В этой теме нет новых непрочитанных сообщений. Внутренняя дорога / The Road Within (Грен Уэллс) [Драма, Комедия, 2014] WEB-DLRip [Гараж Дубляж]

Dracon

0 | 0

2.05 ГБ


Начать новую тему Ответить на тему  [ 1 сообщение ] 




Для Мосгорсуда, Роскомнадзора и рекламодателей:: mosgorsud-torrent[собачка]yandex.ru