Торрент файл
скачать торрент магнет ссылка Добавлен: 07 ноя 2012, 10:12
Размер: 1.45 ГБ
Сидеров: 30
Личеров: 4
Статус: (Dracon)
Автор

СообщениеДобавлено: 07 ноя 2012, 10:12 

Не в сети
Зам. Админа
Аватара пользователя
Дата регистрации:
02 дек 2010, 12:39
Спасибо: 12461 / 214
Сообщения: 27968


Страна: Бразилия
Жанр:боевик, драма, комедия
Год выпуска: 2012
Продолжительность: 01:41:25

Перевод: Любительский (многоголосый закадровый) ViruseProject
Cубтитры: нет

Режиссер: Афонсо Поярт / Afonso Poyart

В ролях: Фернанду Алвис Пинту, Каку Сиоклер, Марат Дескартеш, Djair Guilherme, Роберто Марчезе, Aldine Muller, Алессандра Негрини, Робсон Нюнс

Описание: Что если, в стране произвол? Что если, он убил людей и остался безнаказанным? Что если он чертовски умен и решает поиграть в супергероя и параллельно сорвать куш? Что если все спланировано до мельчайших деталей? Но...
В этом бразильском боевике есть все, чтобы заинтересовать зрителей, увлечь и не отпускать их до самого конца. Убийства, взрывы, красивые женщины, сильные мужчины, чувственная эротика, ошеломляющие спецэффекты, … и, конечно же, Любовь, способная преодолеть все преграды.



Автор рипа: S.T.A.L.K.E.R.2 (aka Stalker oK)

Сэмпл:

Качество видео: HDRip-AVC [BDRip 720p (HDChina)]
Формат видео: MKV

Видео: 1666 Кбит/сек, 896*504 (16:9), в 23,976 кадр/сек, AVC
Аудио: 384 Кбит/сек, 48,0 КГц, 16 бит, 6 канала(ов), AC-3

Общее
Уникальный идентификатор: 231592696362105700174340402314650667391 (0xAE3B2181843DEFE381D9F847A1F1497F)
Полное имя: D:Temp2_zajca_2012_HDRip_AVC_MVO.mkv
Формат: Matroska
Размер файла: 1,45 Гбайт
Продолжительность: 1 ч. 41 м.
Общий поток: 2050 Кбит/сек
Название фильма: 2 Coelhos (rip by S.T.A.L.K.E.R.2)
Дата кодирования: UTC 2012-11-02 19:26:39
Программа кодирования: mkvmerge v5.6.0 ('Kenya Kane') built on May 27 2012 16:44:04
Библиотека кодирования: libebml v1.2.3 + libmatroska v1.3.0

Видео
Идентификатор: 1
Формат: AVC
Формат/Информация: Advanced Video Codec
Профиль формата: High@L4.1
Параметр CABAC формата: Да
Параметр ReFrames формата: 10 кадры
Идентификатор кодека: V_MPEG4/ISO/AVC
Продолжительность: 1 ч. 41 м.
Битрейт: 1666 Кбит/сек
Ширина: 896 пикс.
Высота: 504 пикс.
Соотношение сторон: 16:9
Частота кадров: 23,976 кадр/сек
Цветовое пространство: YUV
Подвыборка цветности: 4:2:0
Битовая глубина: 8 бит
Тип развёртки: Прогрессивная
Бит/(Пиксели*Кадры): 0.154
Размер потока: 1,15 Гбайт (79%)
Библиотека кодирования: x264 core 125 r2200 999b753
Настройки программы: cabac=1 / ref=10 / deblock=1:-2:-1 / analyse=0x3:0x113 / me=umh / subme=10 / psy=1 / psy_rd=1.00:0.05 / mixed_ref=1 / me_range=32 / chroma_me=1 / trellis=2 / 8x8dct=1 / cqm=0 / deadzone=21,11 / fast_pskip=0 / chroma_qp_offset=-6 / threads=3 / lookahead_threads=1 / sliced_threads=0 / nr=0 / decimate=0 / interlaced=0 / bluray_compat=0 / constrained_intra=0 / bframes=12 / b_pyramid=2 / b_adapt=2 / b_bias=0 / direct=1 / weightb=1 / open_gop=0 / weightp=2 / keyint=230 / keyint_min=22 / scenecut=40 / intra_refresh=0 / rc_lookahead=40 / rc=2pass / mbtree=1 / bitrate=1666 / ratetol=1.0 / qcomp=0.60 / qpmin=10 / qpmax=51 / qpstep=4 / cplxblur=20.0 / qblur=0.5 / vbv_maxrate=20000 / vbv_bufsize=25000 / nal_hrd=none / ip_ratio=1.40 / aq=1:1.00
Язык: English

Аудио
Идентификатор: 2
Формат: AC-3
Формат/Информация: Audio Coding 3
Расширение режима: CM (complete main)
Идентификатор кодека: A_AC3
Продолжительность: 1 ч. 41 м.
Вид битрейта: Постоянный
Битрейт: 384 Кбит/сек
Канал(ы): 6 канала(ов)
Расположение каналов: Front: L C R, Side: L R, LFE
Частота: 48,0 КГц
Битовая глубина: 16 бит
Метод сжатия: С потерями
Размер потока: 279 Мбайт (19%)
Заголовок: MVO - ViruseProject
Язык: Russian







реклама партнёра


Вернуться к началу
 Профиль  
 
   Похожие торренты   Автор   Торрент   Размер 
В этой теме нет новых непрочитанных сообщений. Чак / Chuck / 1-5 сезоны 1-91 серии из 91 [фантастика, боевик, комедия, драма, 2007–2012] HDRip, Mvo [MTV / ВГТРК]

salma3

5 | 12

37.63 ГБ

В этой теме нет новых непрочитанных сообщений. Месть / Удар / Daruvu [боевик, комедия, 2012] HDRip, Mvo [Red Media]

salma3

47 | 4

1.46 ГБ

В этой теме нет новых непрочитанных сообщений. Сын Сардара / Son of Sardaar [Мелодрама, комедия, боевик, 2012] HDRip, Mvo [SDI Media]

salma3

47 | 4

1.46 ГБ

В этой теме нет новых непрочитанных сообщений. Свадьба по любви / Игрок 786 / Khiladi 786 [Боевик, комедия, 2012] HDRip, Mvo [SDI Media]

salma3

5 | 2

1.45 ГБ

В этой теме нет новых непрочитанных сообщений. Братишка / Bro' [боевик, драма, криминал, 2012] HDRip, Mvo [НТВ+]

salma3

132 | 2

1.37 ГБ

В этой теме нет новых непрочитанных сообщений. Мачо и ботан / 21 Jump Street [боевик, комедия, криминал, 2012] HDRip, Dub [iPad]

salma3

18 | 2

1.47 ГБ

В этой теме нет новых непрочитанных сообщений. Слепой / Thaandavam [Боевик, триллер, драма, 2012] HDRip, Avo

salma3

40 | 7

2.05 ГБ


Начать новую тему Ответить на тему  [ 1 сообщение ] 




Для Мосгорсуда, Роскомнадзора и рекламодателей:: mosgorsud-torrent[собачка]yandex.ru