Торрент файл
скачать торрент магнет ссылка Добавлен: 06 ноя 2012, 15:48
Размер: 1.37 ГБ
Сидеров: 125
Личеров: 6
Автор

СообщениеДобавлено: 06 ноя 2012, 15:48 

В сети
Супермодератор
Аватара пользователя
Дата регистрации:
15 фев 2012, 16:44
Возраст: 27
Спасибо: 5148 / 2090
Сообщения: 17558
Комната смерти / Комната мертвых / La chambre des morts

Перевод: Профессиональный (многоголосый, закадровый) [Лицензия]
cубтитры: отсутствуют
Формат: DVDRip-AVC, MKV, H.264, AC3
Страна: Франция
Режиссер: Альфред Лот
Жанр: ужасы, драма, детектив, триллер, криминал
Продолжительность: 01:52;35
Год выпуска: 2007
В ролях: Мелани Лоран, Селин Салетт, Эрик Каравака, Жилль Лелуш, Джонатан Цассаи, Лоуренс Коте, Жан-Франсуа Стевенен, Натали Ришар, Стефан Жобер, Антуан Оппенхайм

Описание: Двое безработных программистов, в безлюдном месте по дороге домой, случайно сбивают мужчину. При нем они находят кейс с двумя миллионами евро. Они прячут тело и решают забрать деньги себе, не подозревая о том, что мужчина — отец похищенной девочки, а деньги — выкуп за нее.
Не получив денег, маньяк убивает жертву, одев ее как популярную когда-то во Франции куклу. Расследование поручают Люси Аннабель — молодой женщине, вернувшейся в полицию после рождения близнецов. Расследование только начинается, как маньяк похищает еще одну девочку…



Видео: 720 x 304 (2.35:1), 23.976 fps, AVC (х264) High@L3.0, ~ 1 587 Kbps, 0.235 bit/pixel
Аудио: 48 kHz, AC3 Dolby Digital, 3/2 (L,C,R,l,r) + LFE ch, ~448.00 kbps avg
General
Unique ID: 82561910771120016560611501907561881458 (0x3E1CD87AAED378015C2074A680731F72)
Complete name: E:\Komnata.smerti.by.Shevlyakov.mkv
Format: Matroska
File size: 1.37 GiB
Duration: 1h 52mn
Overall bit rate: 2 040 Kbps
Writing application: HandBrake 0.9.3
Video
ID: 1
Format: AVC
Format/Info: Advanced Video Codec
Format profile: High@L3.0
Format settings, CABAC: Yes
Format settings, ReFrames: 3 frames
Codec ID: V_MPEG4/ISO/AVC
Duration: 1h 52mn
Bit rate: 1 587 Kbps
Width: 720 pixels
Height: 304 pixels
Display aspect ratio: 2.35:1
Frame rate: 25.000 fps
Color space: YUV
Chroma subsampling: 4:2:0
Bit depth: 8 bits
Scan type: Progressive
Bits/(Pixel*Frame): 0.235
Stream size: 1 013 MiB (72%)
Writing library: x264 core 65
Encoding settings: cabac=1 / ref=3 / deblock=1:0:0 / analyse=0x3:0x133 / me=umh / subme=9 / psy_rd=1.0:1.0 / mixed_ref=1 / me_range=16 / chroma_me=1 / trellis=1 / 8x8dct=1 / cqm=0 / deadzone=21,11 / chroma_qp_offset=-4 / threads=1 / nr=0 / decimate=1 / mbaff=0 / bframes=6 / b_pyramid=1 / b_adapt=1 / b_bias=0 / direct=3 / wpredb=1 / keyint=250 / keyint_min=25 / scenecut=40 / rc=2pass / bitrate=1287 / ratetol=1.0 / qcomp=0.60 / qpmin=10 / qpmax=51 / qpstep=4 / cplxblur=20.0 / qblur=0.5 / ip_ratio=1.40 / pb_ratio=1.30 / aq=1:1.00
Language: English
Color primaries: BT.601-6 525, BT.1358 525, BT.1700 NTSC, SMPTE 170M
Transfer characteristics: BT.709-5, BT.1361
Matrix coefficients: BT.601-6 525, BT.1358 525, BT.1700 NTSC, SMPTE 170M
Audio
ID: 2
Format: AC-3
Format/Info: Audio Coding 3
Mode extension: CM (complete main)
Codec ID: A_AC3
Duration: 1h 52mn
Bit rate mode: Constant
Bit rate: 448 Kbps
Channel(s): 6 channels
Channel positions: Front: L C R, Side: L R, LFE
Sampling rate: 48.0 KHz
Bit depth: 16 bits
Compression mode: Lossy
Stream size: 361 MiB (26%)
Language: Russian













реклама партнёра


Вернуться к началу
 Профиль Отправить личное сообщение  
 
   Похожие торренты   Автор   Торрент   Размер 
В этой теме нет новых непрочитанных сообщений. Синяя комната / La chambre bleue (Матьё Амальрик / Mathieu Amalric) [2014г., Франция, детектив, драма, DVDRip] Sub

Alfredovich

23 | 8

1.61 ГБ

В этой теме нет новых непрочитанных сообщений. Комната мертвых / The Dead Room 2015 [Ужасы, 2015] HDRip, Avo

salma3

56 | 3

1.14 ГБ

В этой теме нет новых непрочитанных сообщений. Комната страха / Fear Chamber [ужасы, фантастика, фэнтези, триллер, 1968] DVDRip, Avo

salma3

7 | 4

1.46 ГБ

В этой теме нет новых непрочитанных сообщений. Комната страха / Panic Room [триллер, драма, криминал, 2002] WEB-DL 720p, Dub+Mvo+Sub

salma3

26 | 6

4.05 ГБ

В этой теме нет новых непрочитанных сообщений. Комната / The Room [триллер, драма, мистика, 2006] DVDRip, Mvo

salma3

80 | 5

1.37 ГБ

В этой теме нет новых непрочитанных сообщений. Комната страха №205 / 205 - Zimmer der Angst [ужасы, драма, 2011] HDTVRip, Mvo

salma3

367 | 28

1.37 ГБ

В этой теме нет новых непрочитанных сообщений. Комната с загадками / Riddle Room [ужасы, 2016] WEB-DLRip, Avo

salma3

711 | 47

1.45 ГБ


Начать новую тему Ответить на тему  [ 1 сообщение ] 




Для Мосгорсуда, Роскомнадзора и рекламодателей:: mosgorsud-torrent[собачка]yandex.ru