Торрент файл
скачать торрент магнет ссылка Добавлен: 05 ноя 2012, 20:02
Размер: 2.19 ГБ
Сидеров: 29
Личеров: 4
Автор

СообщениеДобавлено: 05 ноя 2012, 20:02 

Не в сети
Зам. Админа
Аватара пользователя
Дата регистрации:
02 дек 2010, 12:39
Спасибо: 12460 / 214
Сообщения: 27968

Год выхода: 2012
Жанр:Драма, приключения
Режиссер: Уолтер Саллес
В ролях: Гаррет Хедлунд, Сэм Райли, Кристен Стюарт, Эми Адамс, Том Стёрридж, Дэнни Морган, Алиси Брага, Элизабет Мосс, Кирстен Данст, Вигго Мортенсен, Стив Бушеми, Терренс Ховард, Жизель Итье, Майкл Саразин, Каньехтио Хорн, Мэдисон Вульф, Ким Баббс, Сара Аллен, Джованна Закариас, Джо Крест, Ларри Дэй, Коати Мунди, Джэйк Ла Ботц, Артур Холден, Рокки Маркетт, Эмили Д. Хейли, Рикардо Андрес, Сона Татоян, Дэн Бирн, Элисон Лодер, Джои Клейн, Даниела Вонг, Грег Крамер, Тетчена Белланж, Вероника Лауд, Джеффри Ти Фергюсон, Бронуэн Мэнтел, Клара Фьюри, Шон Дж. Диллинхэм, Барбара Гловер, Джейкоб Ортиз, Бенни Белл

Сюжет фильма: После смерти отца начинающий нью-йоркский писатель Сэл Парадайз знакомится с молодым и очаровательным Дином Мориарти, только что вышедшим из тюрьмы и женатым на соблазнительной красотке Марилу. Они мгновенно становятся неразлучными друзьями. Стремясь к свободе, Сэл, Дин и Марилу порывают с условностями жизни и отправляются в путешествие навстречу миру, людям и самим себе.

Продолжительность: 02:19:42
Перевод: Профессиональный (полное дублирование) [Чистый звук]
Выпущено: Франция, Великобритания, США, Бразилия, MK2 Productions, American Zoetrope, Jerry Leider Company

Качество: BDRip [720p]
Видео: 1280x544, 2048 Кбит/сек, 24,000 кадр/сек, AVC, x264, 2,35:1, 0.123 Бит/[Пиксели*Кадры], 2pass
Аудио: AC-3, 192 Кбит/сек, 2 канала(ов), 48,0 КГц
Размер: 2,19 ГБ

Бюджет Фильма: $25 000 000
Кассовые сборы: $3 794 312

Релиз от:









Общее
Уникальный идентификатор: 220667951835725545098319131691177031389 (0xA6031A03D07976D48DB0053D851536DD)
Полное имя: E:ЗагрузкиOn.the.Road.2012.x264.BDRip.720p.DUB.mkv
Формат: Matroska
Версия формата: Version 2
Размер файла: 2,19 Гбайт
Продолжительность: 2 ч. 19 м.
Общий поток: 2241 Кбит/сек
Дата кодирования: UTC 2012-11-04 11:43:22
Программа кодирования: mkvmerge v5.5.0 ('Healer') built on Apr6 2012 21:43:24
Библиотека кодирования: libebml v1.2.3 + libmatroska v1.3.0

Видео
Идентификатор: 1
Формат: AVC
Формат/Информация: Advanced Video Codec
Профиль формата: High@L3.1
Параметр CABAC формата: Да
Параметр ReFrames формата: 4 кадра
Идентификатор кодека: V_MPEG4/ISO/AVC
Продолжительность: 2 ч. 19 м.
Битрейт: 2048 Кбит/сек
Ширина: 1280 пикселей
Высота: 544 пикселя
Соотношение сторон: 2,35:1
Соотношение сторон в оригинале: 2,35:1
Частота кадров: 24,000 кадра/сек
Цветовое пространство: YUV
Субдискретизация насыщенности: 4:2:0
Битовая глубина: 8 бит
Тип развёртки: Прогрессивная
Бит/(Пиксели*Кадры): 0.123
Размер потока: 1,96 Гбайт (89%)
Заголовок: На дороге
Библиотека кодирования: x264 core 128 r2216 198a7ea
Настройки программы: cabac=1 / ref=4 / deblock=1:0:0 / analyse=0x3:0x133 / me=hex / subme=7 / psy=1 / psy_rd=1.00:0.00 / mixed_ref=1 / me_range=16 / chroma_me=1 / trellis=1 / 8x8dct=1 / cqm=0 / deadzone=21,11 / fast_pskip=1 / chroma_qp_offset=-2 / threads=12 / lookahead_threads=2 / sliced_threads=0 / nr=0 / decimate=1 / interlaced=0 / bluray_compat=0 / constrained_intra=0 / bframes=3 / b_pyramid=2 / b_adapt=1 / b_bias=0 / direct=1 / weightb=1 / open_gop=0 / weightp=2 / keyint=240 / keyint_min=24 / scenecut=40 / intra_refresh=0 / rc_lookahead=40 / rc=2pass / mbtree=1 / bitrate=2048 / ratetol=1.0 / qcomp=0.60 / qpmin=10 / qpmax=51 / qpstep=4 / cplxblur=20.0 / qblur=0.5 / ip_ratio=1.40 / aq=1:1.00
Язык: English
Default: Да
Forced: Нет

Аудио
Идентификатор: 2
Формат: AC-3
Формат/Информация: Audio Coding 3
Расширение режима: CM (complete main)
Идентификатор кодека: A_AC3
Продолжительность: 2 ч. 19 м.
Вид битрейта: Постоянный
Битрейт: 192 Кбит/сек
Каналы: 2 канала
Расположение каналов: Front: L R
Частота: 48,0 КГц
Битовая глубина: 16 бит
Метод сжатия: С потерями
Размер потока: 192 Мбайт (9%)
Заголовок: Дублированный
Язык: Russian
Default: Да
Forced: Нет




реклама партнёра


Вернуться к началу
 Профиль  
 
   Похожие торренты   Автор   Торрент   Размер 
В этой теме нет новых непрочитанных сообщений. Безумный Макс: Дорога ярости / Mad Max: Fury Road (Джордж Миллер) [фантастика, боевик, триллер, приключения, 2015] WEB-DL 720p, dub [Чистый звук]

Dracon

1508 | 14

3.91 ГБ

В этой теме нет новых непрочитанных сообщений. Ной / Noah [Драма, приключения, 2014] BDRip 720p, dub [Чистый звук]

Dracon

1549 | 35

6.88 ГБ

В этой теме нет новых непрочитанных сообщений. Бен-Гур / Ben-Hur [драма, приключения, история, 2016] BDRip 720p, Dub [Чистый звук]

salma3

0 | 150

5.55 ГБ

В этой теме нет новых непрочитанных сообщений. Тропы / Tracks [драма, приключения, биография, 2013] BDRip 720p, mvo [Чистый звук]

Dracon

2 | 2

5.16 ГБ

В этой теме нет новых непрочитанных сообщений. Джем и голограммы [фэнтези, драма, приключения, музыка, 2015] BDRip 720p, dub [Чистый звук]

Dracon

105 | 6

5.62 ГБ

В этой теме нет новых непрочитанных сообщений. Помпеи / Pompeii [приключения, боевик, драма, мелодрама, 2014] BDRip 720p, dub [Чистый звук]

Dracon

1337 | 15

4.51 ГБ

В этой теме нет новых непрочитанных сообщений. Машина Джейн Мэнсфилд / Jayne Mansfield's Car [драма, 2012] BDRip 720p, Dub [Чистый Звук]

Dracon

5 | 2

5.62 ГБ


Начать новую тему Ответить на тему  [ 1 сообщение ] 




Для Мосгорсуда, Роскомнадзора и рекламодателей:: mosgorsud-torrent[собачка]yandex.ru