Торрент файл
скачать торрент магнет ссылка Добавлен: 31 окт 2012, 16:31
Размер: 2.15 ГБ
Сидеров: 58
Личеров: 9
Статус: (Dracon)
Автор

СообщениеДобавлено: 31 окт 2012, 16:31 

Не в сети
Зам. Админа
Аватара пользователя
Дата регистрации:
02 дек 2010, 12:39
Спасибо: 12461 / 214
Сообщения: 27968

Год выхода: 2011
Жанр: Боевик, драма, приключения, военный, история
Режиссер: Джеки Чан, Чжан Ли
В ролях: Джеки Чан, Ли Бинбин, Уинстон Чао, Джоан Чэнь, Джейси Чан, Ху Гэ, Минг Ху, Хуанг Жи Жонг, Цзян Вэньли

О фильме:
Китай, 1911 г. Период политической нестабильности и революционных настроений в государстве. На фоне общей неразберихи и неопределённости, некто Сунь Ятсен поднимает восстание и направляет мощь своих войск с одной единственной целью — свергнуть правящую династию Цин и установить новый, социально направленный режим управления республикой.



Страна: Китай, Гонконг, Beijing Alnair Culture & Media, Changchun Film Studio, China City Construction
Продолжительность: 01:39:12
Перевод: Профессиональный многоголосый
Субтитры: Русские
Дата релиза: 31.10.2012

Кодек: H.264
Качество: BDRip (AVC) (BDRemux (1080p))
Видео: MPEG-4 AVC, 2200 Кбит/с, 1024x436, 23.976 кадра/с
Звук: Русский, английский (AC3, 6 ch, 448 Кбит/с)


Семпл


Общее
Уникальный идентификатор: 228748791367990420564456758004630452551 (0xAC176A2A073B0BA6B58977F333207947)
Полное имя: G:2Padenie.poslednej.imperii.2011.x264.BDRip.(AVC).ExKinoRay.mkv
Формат: Matroska
Версия формата: Version 2
Размер файла: 2,15 Гбайт
Продолжительность: 1 ч. 39 м.
Общий поток: 3098 Кбит/сек
Название фильма: Padenie.poslednej.imperii.2011.x264.BDRip.(AVC).ExKinoRay
Дата кодирования: UTC 2012-10-31 12:48:37
Программа кодирования: mkvmerge v4.0.0 ('The Stars were mine') сборка от Jun6 2010 16:18:42
Библиотека кодирования: libebml v1.0.0 + libmatroska v1.0.0

Видео
Идентификатор: 1
Формат: AVC
Формат/Информация: Advanced Video Codec
Профиль формата: High@L4.1
Параметр CABAC формата: Да
Параметр ReFrames формата: 8 кадров
Идентификатор кодека: V_MPEG4/ISO/AVC
Продолжительность: 1 ч. 39 м.
Битрейт: 2200 Кбит/сек
Ширина: 1024 пикселя
Высота: 436 пикселей
Соотношение сторон: 2,35:1
Частота кадров: 23,976 кадра/сек
Цветовое пространство: YUV
Субдискретизация насыщенности: 4:2:0
Битовая глубина: 8 бит
Тип развёртки: Прогрессивная
Бит/(Пиксели*Кадры): 0.206
Размер потока: 1,48 Гбайт (69%)
Заголовок: Rip by Enigma
Библиотека кодирования: x264 core 116 r2074 2641b9e
Настройки программы: cabac=1 / ref=8 / deblock=1:-2:-2 / analyse=0x3:0x133 / me=umh / subme=11 / psy=1 / psy_rd=1.00:0.00 / mixed_ref=1 / me_range=48 / chroma_me=1 / trellis=2 / 8x8dct=1 / cqm=0 / deadzone=21,11 / fast_pskip=0 / chroma_qp_offset=-2 / threads=3 / sliced_threads=0 / nr=0 / decimate=0 / interlaced=0 / bluray_compat=0 / constrained_intra=0 / bframes=8 / b_pyramid=2 / b_adapt=2 / b_bias=0 / direct=3 / weightb=1 / open_gop=0 / weightp=2 / keyint=240 / keyint_min=23 / scenecut=40 / intra_refresh=0 / rc=2pass / mbtree=0 / bitrate=2200 / ratetol=1.0 / qcomp=0.60 / qpmin=10 / qpmax=51 / qpstep=4 / cplxblur=20.0 / qblur=0.5 / ip_ratio=1.40 / pb_ratio=1.30 / aq=2:1.00
Язык: English
Default: Нет
Forced: Нет

Аудио #1
Идентификатор: 2
Формат: AC-3
Формат/Информация: Audio Coding 3
Расширение режима: CM (complete main)
Идентификатор кодека: A_AC3
Продолжительность: 1 ч. 39 м.
Вид битрейта: Постоянный
Битрейт: 448 Кбит/сек
Каналы: 6 каналов
Расположение каналов: Front: L C R, Side: L R, LFE
Частота: 48,0 КГц
Битовая глубина: 16 бит
Метод сжатия: С потерями
Размер потока: 318 Мбайт (14%)
Язык: Russian
Default: Да
Forced: Нет

Аудио #2
Идентификатор: 3
Формат: AC-3
Формат/Информация: Audio Coding 3
Расширение режима: CM (complete main)
Идентификатор кодека: A_AC3
Продолжительность: 1 ч. 39 м.
Вид битрейта: Постоянный
Битрейт: 448 Кбит/сек
Каналы: 6 каналов
Расположение каналов: Front: L C R, Side: L R, LFE
Частота: 48,0 КГц
Битовая глубина: 16 бит
Метод сжатия: С потерями
Размер потока: 318 Мбайт (14%)
Язык: English
Default: Нет
Forced: Нет

Текст
Идентификатор: 4
Формат: UTF-8
Идентификатор кодека: S_TEXT/UTF8
Идентификатор кодека/Информация: UTF-8 Plain Text
Язык: Russian
Default: Да
Forced: Нет

Меню
00:00:00.000: en:Chapter 1
00:02:10.030: en:Chapter 2
00:06:07.802: en:Chapter 3
00:11:06.300: en:Chapter 4
00:15:34.402: en:Chapter 5
00:20:28.062: en:Chapter 6
00:25:02.037: en:Chapter 7
00:30:23.059: en:Chapter 8
00:36:30.926: en:Chapter 9
00:42:14.637: en:Chapter 10
00:51:15.044: en:Chapter 11
00:58:07.991: en:Chapter 12
01:11:37.033: en:Chapter 13
01:23:22.172: en:Chapter 14
01:27:33.156: en:Chapter 15
01:31:35.065: en:Chapter 16

Релиз от:

Автор релиза:




реклама партнёра


Вернуться к началу
 Профиль  
 
   Похожие торренты   Автор   Торрент   Размер 
В этой теме нет новых непрочитанных сообщений. 1911 / Падение последней империи / Xinhai geming [боевик, драма, приключения, военный, история, 2011] DVD5, Mvo+Sub Лицензия

salma3

7 | 2

4.36 ГБ

В этой теме нет новых непрочитанных сообщений. 300 спартанцев: Расцвет империи / 300: Rise of an Empire [боевик, драма, военный, 2014] BDRip, Dub [Лицензия]

Dracon

8 | 2

2.19 ГБ

В этой теме нет новых непрочитанных сообщений. 300 спартанцев: Расцвет империи / 300: Rise of an Empire [боевик, драма, военный, 2014] BDRip 1080p, Dub [iTunes]

Dracon

493 | 16

7.93 ГБ

В этой теме нет новых непрочитанных сообщений. 300 спартанцев: Расцвет империи / 300: Rise of an Empire [Фэнтези, боевик, драма, военный, 2014] BDRip-AVC, Dub+Sub [Лицензия]

salma3

830 | 30

2.23 ГБ

В этой теме нет новых непрочитанных сообщений. 300 спартанцев: Расцвет империи / 300: Rise of an Empire [Фэнтези, боевик, драма, военный, 2014] BDRip-AVC, Dub+Sub [Лицензия]

salma3

438 | 26

1.46 ГБ

В этой теме нет новых непрочитанных сообщений. 300 спартанцев: Расцвет империи / 300: Rise of an Empire [боевик, драма, военный, 2014] BDRip 720p, Dub [iTunes]

Dracon

176 | 8

4.65 ГБ

В этой теме нет новых непрочитанных сообщений. 300 спартанцев: Расцвет империи / 300: Rise of an Empire [боевик, драма, военный, 2014] BDRip 1080p, Dub+Sub [Лицензия | 3D-Video]

Dracon

295 | 23

9.14 ГБ


Начать новую тему Ответить на тему  [ 1 сообщение ] 




Для Мосгорсуда, Роскомнадзора и рекламодателей:: mosgorsud-torrent[собачка]yandex.ru