Торрент файл
скачать торрент магнет ссылка Добавлен: 31 окт 2012, 11:11
Размер: 1.45 ГБ
Сидеров: 5
Личеров: 2
Статус: (Dracon)
Автор

СообщениеДобавлено: 31 окт 2012, 11:11 

Не в сети
Зам. Админа
Аватара пользователя
Дата регистрации:
02 дек 2010, 12:39
Спасибо: 12460 / 214
Сообщения: 27968

Год выхода: 2011
Жанр: ужасы, боевик, триллер
Режиссер: Кимбл Рендалл

В ролях: Завьер Сэмюэл, Шарни Винсон, Адриан Пэнг, Юйу Ци, Алекс Расселл, Фиби Тонкин, Мартин Сакс, Элис Паркинсон, Джулиан МакМэхон, Дэниэл Уилли

О фильме: Чудовищное цунами обрушивается на курортный город. Из морских глубин на затопленные улицы вырываются голодные и жаждущие крови акулы. Начинается охота. Оказавшись в ловушке стихии, чудом уцелевшие люди пытаются выжить. Сможет ли Джош спасти жизнь девушки, которую он всегда любил, но однажды уже потерял?



Страна: Австралия, Сингапур
Продолжительность: 1:33:07
Перевод: Дублированный

Кодек: h.264
Качество: BDRip-AVC
Видео: 1024x576 (16:9), 23.976 fps, 1843 kbps, 0.130 bit/pixel
Звук: 48 kHz, AC3 5.1, 384.00 kbps (Дублированный)

&

Общее
Уникальный идентификатор : 243387000780385833051703614502189342713 (0xB71AA19C1303C73291241B8D2E5B1FF9)
Полное имя : D:Bait.2011.BDRip-AVC.mkv
Формат : Matroska
Версия формата : Version 2
Размер файла : 1,45 Гбайт
Продолжительность : 1 ч. 33 м.
Общий поток : 2227 Кбит/сек
Название фильма : Цунами / Bait (2011) BDRip-AVC rip by Rulya74
Дата кодирования : UTC 2012-10-31 04:13:51
Программа кодирования : mkvmerge v5.7.0 ('The Whirlwind') built on Jul 8 2012 20:08:51
Библиотека кодирования : libebml v1.2.3 + libmatroska v1.3.0

Видео
Идентификатор : 1
Формат : AVC
Формат/Информация : Advanced Video Codec
Профиль формата : High@L4.1
Параметр CABAC формата : Да
Параметр ReFrames формата : 10 кадров
Идентификатор кодека : V_MPEG4/ISO/AVC
Продолжительность : 1 ч. 33 м.
Битрейт : 1843 Кбит/сек
Ширина : 1024 пикселя
Высота : 576 пикселей
Соотношение сторон : 16:9
Частота кадров : 23,976 кадра/сек
Цветовое пространство : YUV
Субдискретизация насыщенности : 4:2:0
Битовая глубина : 8 бит
Тип развёртки : Прогрессивная
Бит/(Пиксели*Кадры) : 0.130
Размер потока : 1,17 Гбайт (81%)
Библиотека кодирования : x264 core 128 r2216 198a7ea
Настройки программы : cabac=1 / ref=10 / deblock=1:-1:-1 / analyse=0x3:0x113 / me=umh / subme=10 / psy=1 / psy_rd=1.08:0.05 / mixed_ref=1 / me_range=48 / chroma_me=1 / trellis=2 / 8x8dct=1 / cqm=0 / deadzone=21,11 / fast_pskip=0 / chroma_qp_offset=-3 / threads=4 / lookahead_threads=1 / sliced_threads=0 / nr=0 / decimate=1 / interlaced=0 / bluray_compat=0 / constrained_intra=0 / bframes=10 / b_pyramid=2 / b_adapt=2 / b_bias=0 / direct=3 / weightb=1 / open_gop=0 / weightp=2 / keyint=240 / keyint_min=22 / scenecut=40 / intra_refresh=0 / rc_lookahead=40 / rc=2pass / mbtree=1 / bitrate=1843 / ratetol=1.0 / qcomp=0.60 / qpmin=0 / qpmax=69 / qpstep=4 / cplxblur=20.0 / qblur=0.5 / ip_ratio=1.40 / aq=2:1.00
Default : Да
Forced : Нет

Аудио
Идентификатор : 2
Формат : AC-3
Формат/Информация : Audio Coding 3
Расширение режима : CM (complete main)
Идентификатор кодека : A_AC3
Продолжительность : 1 ч. 33 м.
Вид битрейта : Постоянный
Битрейт : 384 Кбит/сек
Каналы : 6 каналов
Расположение каналов : Front: L C R, Side: L R, LFE
Частота : 48,0 КГц
Битовая глубина : 16 бит
Метод сжатия : С потерями
Размер потока : 256 Мбайт (17%)
Заголовок : Дублированный
Язык : Russian
Default : Да
Forced : Нет






реклама партнёра


Вернуться к началу
 Профиль  
 
   Похожие торренты   Автор   Торрент   Размер 
В этой теме нет новых непрочитанных сообщений. На живца / Bait [Боевик, триллер, комедия, криминал, 2000] WEB-DL 720р, Dub+Avo+Sub

salma3

179 | 41

4.36 ГБ

В этой теме нет новых непрочитанных сообщений. На живца / Bait [Боевик, криминал, комедия, 2000] WEB-DLRip, Avo

salma3

20 | 4

1.46 ГБ

В этой теме нет новых непрочитанных сообщений. Пустошь / The Barrens [ужасы, триллер, 2012] BDRip 720p, Mvo+avo

Dracon

27 | 4

3.29 ГБ

В этой теме нет новых непрочитанных сообщений. И явился Дьявол / Ahi va el diablo [ужасы, триллер, 2012] BDRip, Avo+Sub

salma3

11 | 4

1.47 ГБ

В этой теме нет новых непрочитанных сообщений. Антивирусный / Antiviral [ужасы, фантастика, триллер, 2012] BDRip 720p, Dvo+Avo+Sub [НТВ+]

salma3

44 | 6

6.4 ГБ

В этой теме нет новых непрочитанных сообщений. Антивирусный / Antiviral [ужасы, фантастика, триллер, 2012] BDRip 1080p, Dvo+Avo [НТВ+]

salma3

8 | 2

12.65 ГБ

В этой теме нет новых непрочитанных сообщений. Дом терпимости / The Seasoning House (Пол Хайет) [2012, Ужасы, триллер, BDRip-AVC] avo

Nickolas3435

218 | 9

1.21 ГБ


Начать новую тему Ответить на тему  [ 1 сообщение ] 




Для Мосгорсуда, Роскомнадзора и рекламодателей:: mosgorsud-torrent[собачка]yandex.ru