Торрент файл
скачать торрент магнет ссылка Добавлен: 28 окт 2012, 14:28
Размер: 1.47 ГБ
Сидеров: 19
Личеров: 7
Автор

СообщениеДобавлено: 28 окт 2012, 14:28 

Не в сети
Супермодератор
Аватара пользователя
Дата регистрации:
15 фев 2012, 16:44
Возраст: 27
Спасибо: 5504 / 2103
Сообщения: 20889

Бесстрашная гиена 3 / Бесстрашный мастер / Fearless Hyena 3 / Fearless Master


Год выхода: 1980
Жанр: Боевые искусства
Режиссер: Питер Ло / Peter Lo
В ролях: Джеки Чен (не путать с Джеки Чаном), Боло Янг, Брюс Тай, Джон Чеун, Сань Куэй

О фильме:В наследство от отца Джеки (Джеки Чен) получает волшебный "летающий" талисман. По легенде, его обладатель - непобедим. Но не так просто сохранить талисман, о котором мечтают многие. "Змеиная" банда пытается любой ценой заполучить реликвию. Не полагаясь только на магию, Джеки в совершенстве овладевает искусством рукопашного боя.




Выпущено: Китай
Продолжительность: 01:22:29
Перевод: Профессиональный (одноголосый, закадровый)


Кодек: XviD - Совместимо с бытовыми DVD-плеерами
Качество: DVDRip
Видео:720x544 (1.32:1), 29.970 fps, XviD build 65 ~2342 kbps avg, 0.20 bit/pixel
Аудио:48 kHz, AC3 Dolby Digital, 2/0 (L,R) ch, ~192 kbps


Общее
Полное имя: Besstrashnaj.giena.3.1980.XviD.DVDRip.VO_SergV.avi
Формат: AVI
Формат/Информация: Audio Video Interleave
Размер файла: 1,47 Гбайт
Продолжительность: 1 ч. 22 м.
Общий поток: 2546 Кбит/сек
Название фильма: Besstrashnaj.giena.3.1980.XviD.DVDRip.VO_SergV
Программа кодирования: VirtualDubMod 1.5.10.3 | http://www.virtualdub-fr.org || (build 2550/release)
Примечание: Рип от SergV

Видео
Идентификатор: 0
Формат: MPEG-4 Visual
Профиль формата: Advanced Simple@L5
Параметр BVOP формата: 2
Параметр QPel формата: Нет
Параметр GMC формата: Без точки перехода
Параметр матрицы формата: Default (MPEG)
Идентификатор кодека: XVID
Идентификатор кодека/Подсказка: XviD
Продолжительность: 1 ч. 22 м.
Битрейт: 2342 Кбит/сек
Ширина: 720 пикселей
Высота: 544 пикселя
Соотношение сторон: 4:3
Частота кадров: 29,970 кадров/сек
Цветовое пространство: YUV
Субдискретизация насыщенности: 4:2:0
Битовая глубина: 8 бит
Тип развёртки: Прогрессивная
Метод сжатия: С потерями
Бит/(Пиксели*Кадры): 0.200
Размер потока: 1,35 Гбайт (92%)
Библиотека кодирования: XviD 65

Аудио
Идентификатор: 1
Формат: AC-3
Формат/Информация: Audio Coding 3
Расширение режима: CM (complete main)
Параметр Endianness формата: Big
Идентификатор кодека: 2000
Продолжительность: 1 ч. 22 м.
Вид битрейта: Постоянный
Битрейт: 192 Кбит/сек
Каналы: 2 канала
Расположение каналов: Front: L R
Частота: 48,0 КГц
Битовая глубина: 16 бит
Метод сжатия: С потерями
Размер потока: 113 Мбайт (8%)
Выравнивание: Разделение по промежуткам
Продолжительность промежутка: 33мс. (1,00 видеокадр)
Время предзагрузки промежутка: 500мс.


Релиз от:




реклама партнёра


Вернуться к началу
 Профиль Отправить личное сообщение  
 
   Похожие торренты   Автор   Торрент   Размер 
В этой теме нет новых непрочитанных сообщений. Бесстрашная гиена 2 / Long teng hu yue [Боевик, боевые искусства, комедия, 1983] BDRip 1080p, Mvo

salma3

13 | 7

5.85 ГБ

В этой теме нет новых непрочитанных сообщений. Бесстрашная гиена / Xiao quan guai zhao [Боевик, боевые искусства, комедия, 1979] BD-Rip 1080p, Avo+Dvo

salma3

6 | 6

6.6 ГБ

В этой теме нет новых непрочитанных сообщений. Шестой мастер Дзен / Zen Master 6 / Shin chung luk jo [Боевые искусства, 1987] DVD5, Avo

salma3

39 | 1

4.18 ГБ

В этой теме нет новых непрочитанных сообщений. Рандеву со смертью / Rendezvous with Death [Боевые искусства, 1980] DVDRip, Avo

salma3

29 | 6

743.35 МБ

В этой теме нет новых непрочитанных сообщений. Рандеву со смертью / Rendezvous with Death [Боевые искусства, 1980] DVDRip, Avo

salma3

18 | 6

1.46 ГБ

В этой теме нет новых непрочитанных сообщений. Мастер / Long hang tian xia [Боевик, боевые искусства, 1992] BDRip 1080p, Avo

salma3

64 | 7

5.98 ГБ

В этой теме нет новых непрочитанных сообщений. Гиена / Hyena [драма, криминал, 2014] HDRip, avo

marya111

0 | 0

2.06 ГБ


Начать новую тему Ответить на тему  [ 1 сообщение ] 




Для Мосгорсуда, Роскомнадзора и рекламодателей:: mosgorsud-torrent[собачка]yandex.ru