Торрент файл
скачать торрент магнет ссылка Добавлен: 27 окт 2012, 20:06
Размер: 2.19 ГБ
Сидеров: 14
Личеров: 2
Статус: (drink)
Автор

СообщениеДобавлено: 27 окт 2012, 20:06 

Не в сети
Супермодератор
Аватара пользователя
Дата регистрации:
11 апр 2010, 18:10
Спасибо: 5798 / 7
Сообщения: 56779

Год выпуска: 2012
Производство: США / Columbia Pictures, Happy Madison Productions
Жанр:Комедия
Продолжительность: 01:56:02
Перевод: Профессиональный (дублированый)
Субтитры: Русские, английские, английские (SDH)


Режиссер: Шон Андерс / Sean Anders

В ролях: Адам Сэндлер, Энди Сэмберг, Лейтон Мистер, Майло Вентимилья, Ванилла Айс, Пегги Стюарт, Блейк Кларк, Меган Фэй, Тони Орландо, Джеймс Каан

О фильме: Переспав с «очень плохой училкой» прямо в школе, тинейджер становится отцом «по залету», а его зрелая пассия попадает в тюрьму за совращение малолетнего. Теперь юный папа-одиночка вынужден заботиться о сыне до его совершеннолетия, а затем благополучно исчезает в неизвестном направлении. И вот, много лет спустя, оказавшись на мели, эксцентричный папаша-инфантил словно ураган врывается в жизнь сына накануне его свадьбы и своими безумными выходками переворачивает всё вверх дном.

Примечание: Отсутствует 1.5 минуты перевода!


Бюджет: $70 000 000



Официальный сайт


Качество: BDRip-AVC [That's My Boy 2012 1080p Blu-ray AVC DTS-HD MA 5.1-HDChina]
Формат: MKV
Видео: H.264, 960x400 (2,40:1), 23.976 кадр/сек, 1928 Кбит/сек, 0.209 bit/pixel
Аудио#1: 48 kHz, AC3 Dolby Digital, 3/2 (L,C,R,l,r) + LFE ch, ~384.00 kbps avg | RUS
Аудио#2: 48 kHz, AC3 Dolby Digital, 3/2 (L,C,R,l,r) + LFE ch, ~384.00 kbps avg | ENG


Автор рипа: potroks



Общее
Уникальный идентификатор: 229067106530499874340554830952940294072 (0xAC54B85039608833941EA529E675CFB8)
Полное имя: Papa.Dosvidos.2012.D.EXTENDED.BDRip.x264.potroks.mkv
Формат: Matroska
Версия формата: Version 2
Размер файла: 2,19 Гбайт
Продолжительность: 1 ч. 56 м.
Общий поток: 2698 Кбит/сек
Название фильма: -=POTROKS=-
Дата кодирования: UTC 2012-10-13 11:33:12
Программа кодирования: mkvmerge v5.7.0 ('The Whirlwind') built on Jul8 2012 20:08:51
Библиотека кодирования: libebml v1.2.3 + libmatroska v1.3.0

Видео
Идентификатор: 1
Формат: AVC
Формат/Информация: Advanced Video Codec
Профиль формата: High@L4.1
Параметр CABAC формата: Да
Параметр ReFrames формата: 12 кадров
Идентификатор кодека: V_MPEG4/ISO/AVC
Продолжительность: 1 ч. 56 м.
Битрейт: 1928 Кбит/сек
Ширина: 960 пикселей
Высота: 400 пикселей
Соотношение сторон: 2,40:1
Частота кадров: 23,976 кадра/сек
Цветовое пространство: YUV
Субдискретизация насыщенности: 4:2:0
Битовая глубина: 8 бит
Тип развёртки: Прогрессивная
Бит/(Пиксели*Кадры): 0.209
Размер потока: 1,52 Гбайт (70%)
Заголовок: Папа досвидос.2012.D.EXTENDED.BDRip.x264.potroks
Библиотека кодирования: x264 core 125 r2208 d9d2288
Настройки программы: cabac=1 / ref=12 / deblock=1:-3:-2 / analyse=0x3:0x133 / me=umh / subme=11 / psy=1 / psy_rd=1.05:0.05 / mixed_ref=1 / me_range=32 / chroma_me=1 / trellis=2 / 8x8dct=1 / cqm=0 / deadzone=21,11 / fast_pskip=0 / chroma_qp_offset=-3 / threads=6 / lookahead_threads=1 / sliced_threads=0 / nr=0 / decimate=0 / interlaced=0 / bluray_compat=0 / constrained_intra=0 / bframes=13 / b_pyramid=2 / b_adapt=2 / b_bias=0 / direct=3 / weightb=1 / open_gop=0 / weightp=2 / keyint=240 / keyint_min=23 / scenecut=40 / intra_refresh=0 / rc_lookahead=100 / rc=2pass / mbtree=1 / bitrate=1928 / ratetol=1.0 / qcomp=0.70 / qpmin=10 / qpmax=51 / qpstep=4 / cplxblur=20.0 / qblur=0.5 / vbv_maxrate=20000 / vbv_bufsize=25000 / nal_hrd=none / ip_ratio=1.35 / aq=1:0.80
Язык: English
Default: Да
Forced: Нет

Аудио #1
Идентификатор: 2
Формат: AC-3
Формат/Информация: Audio Coding 3
Расширение режима: CM (complete main)
Параметр Endianness формата: Big
Идентификатор кодека: A_AC3
Продолжительность: 1 ч. 56 м.
Вид битрейта: Постоянный
Битрейт: 384 Кбит/сек
Каналы: 6 каналов
Расположение каналов: Front: L C R, Side: L R, LFE
Частота: 48,0 КГц
Битовая глубина: 16 бит
Метод сжатия: С потерями
Размер потока: 319 Мбайт (14%)
Язык: Russian
Default: Да
Forced: Нет

Аудио #2
Идентификатор: 3
Формат: AC-3
Формат/Информация: Audio Coding 3
Расширение режима: CM (complete main)
Параметр Endianness формата: Big
Идентификатор кодека: A_AC3
Продолжительность: 1 ч. 56 м.
Вид битрейта: Постоянный
Битрейт: 384 Кбит/сек
Каналы: 6 каналов
Расположение каналов: Front: L C R, Side: L R, LFE
Частота: 48,0 КГц
Битовая глубина: 16 бит
Метод сжатия: С потерями
Размер потока: 319 Мбайт (14%)
Язык: English
Default: Нет
Forced: Нет

Текст #1
Идентификатор: 4
Формат: UTF-8
Идентификатор кодека: S_TEXT/UTF8
Идентификатор кодека/Информация: UTF-8 Plain Text
Язык: English
Default: Нет
Forced: Нет

Текст #2
Идентификатор: 5
Формат: UTF-8
Идентификатор кодека: S_TEXT/UTF8
Идентификатор кодека/Информация: UTF-8 Plain Text
Язык: English
Default: Нет
Forced: Нет

Текст #3
Идентификатор: 6
Формат: UTF-8
Идентификатор кодека: S_TEXT/UTF8
Идентификатор кодека/Информация: UTF-8 Plain Text
Язык: Russian
Default: Нет
Forced: Нет

: Нет

x264 [info]: frame I:1975Avg QP:15.75size: 68858
x264 [info]: frame P:37925 Avg QP:17.88size: 22436
x264 [info]: frame B:127043 Avg QP:21.60size:5440
x264 [info]: consecutive B-frames:2.1%2.5%7.4% 41.1% 15.9% 19.2%3.3%3.5%3.6%0.5%0.2%0.4%0.2%0.1%
x264 [info]: mb II16..4:7.7% 59.7% 32.6%
x264 [info]: mb PI16..4:0.7%7.6%1.7%P16..4: 29.4% 31.8% 15.6%4.2%0.8%skip: 8.2%
x264 [info]: mb BI16..4:0.1%0.8%0.2%B16..8: 31.0% 18.4%3.6%direct: 4.3%skip:41.7%L0:38.9% L1:40.4% BI:20.7%
x264 [info]: 8x8 transform intra:71.5% inter:52.2%
x264 [info]: direct mvsspatial:98.6% temporal:1.4%
x264 [info]: coded y,uvDC,uvAC intra: 86.7% 87.8% 75.4% inter: 19.4% 20.0% 12.8%
x264 [info]: i16 v,h,dc,p: 32% 14%8% 46%
x264 [info]: i8 v,h,dc,ddl,ddr,vr,hd,vl,hu: 14% 10%5%8% 11% 13% 11% 13% 13%
x264 [info]: i4 v,h,dc,ddl,ddr,vr,hd,vl,hu: 15% 11%6%8% 13% 13% 11% 10% 11%
x264 [info]: i8c dc,h,v,p: 42% 21% 22% 15%
x264 [info]: Weighted P-Frames: Y:2.1% UV:1.1%
x264 [info]: ref P L0: 52.4% 10.0% 13.6%6.7%4.7%3.7%2.8%1.7%1.4%1.2%0.9%0.8%0.1%0.0%
x264 [info]: ref B L0: 79.8%9.9%4.5%2.0%1.3%0.9%0.7%0.4%0.3%0.2%0.1%
x264 [info]: ref B L1: 93.3%6.7%
x264 [info]: kb/s:1927.90

x264 [total]: encoded 166943 frames, 4.28 fps, 1927.90 kb/s






реклама партнёра


Вернуться к началу
 Профиль Отправить личное сообщение  
 
   Похожие торренты   Автор   Торрент   Размер 
В этой теме нет новых непрочитанных сообщений. Папа – робот / Кибернетический папа / And You Thought Your Parents Were Weird [Фантастическая комедия, 1991] VHSRip, Avo

salma3

13 | 2

1.38 ГБ

В этой теме нет новых непрочитанных сообщений. Отчаянный папа / Father Hood [Комедия, 1993] BDRip 720p, Mvo+Avo+Sub

salma3

111 | 30

4.75 ГБ

В этой теме нет новых непрочитанных сообщений. Месье Папа / Monsieur Papa [комедия, мелодрама, 2011] BDRip 720p, Mvo+Avo+Sub

salma3

63 | 3

4.85 ГБ

В этой теме нет новых непрочитанных сообщений. Я, папа и собака / I Heart Shakey [комедия, приключения, семейный, 2012] WEB-DLRip, Mvo

salma3

100 | 10

1.46 ГБ

В этой теме нет новых непрочитанных сообщений. Папа Гринвич-Виллидж / The Pope of Greenwich Village [боевик, драма, комедия, криминал, 1984] BDRip-AVC, Dvo+Avo

salma3

29 | 3

1.46 ГБ

В этой теме нет новых непрочитанных сообщений. Папа Гринвич-Виллидж / The Pope of Greenwich Village [Боевик, драма, комедия, криминал, 1984] BDRip 1080p, Dvo+Avo

salma3

22 | 7

11 ГБ

В этой теме нет новых непрочитанных сообщений. Тусовщики из супермаркета / Mallrats [Комедия, 1995] BDRip 1080p, Avo+Sub [Extended Cut]

salma3

58 | 4

9.29 ГБ


Начать новую тему Ответить на тему  [ 1 сообщение ] 




Для Мосгорсуда, Роскомнадзора и рекламодателей:: mosgorsud-torrent[собачка]yandex.ru