Торрент файл
скачать торрент магнет ссылка Добавлен: 25 окт 2012, 09:38
Размер: 2.71 ГБ
Сидеров: 5
Личеров: 1
Статус: (Dracon)
Автор

СообщениеДобавлено: 25 окт 2012, 09:38 

Не в сети
Зам. Админа
Аватара пользователя
Дата регистрации:
02 дек 2010, 12:39
Спасибо: 12461 / 214
Сообщения: 27968

Год выхода: 2011
Жанр: Драма, Мелодрама
Режиссер: Фернанду Мейреллиш
В ролях: Энтони Хопкинс, Джуд Лоу, Рэйчел Вайз, Владимир Вдовиченков, Бен Фостер, Марк Иванир, Мориц Бляйбтрой, Жамель Деббуз, Питер Морган, Луция Сипосова, Габриэла Марчинкова, Йоханнес Криш, Динара Друкарова, Джулиано Казарре, Мария Флор, Бен Фостер, Марианн Жан-Баптист, Даница Юрчова, Риэнн Стил, Франсуа-Ксавье Демезон, Джамел Барек, Чипо Чанг, Сидни Вэйд, Тереза Србова, Катрина Васильева

О фильме:
Они — из разных социальных слоев. Но что-то притягивает их друг к другу. Только секс? Или это все-таки любовь? Ведь человек всегда глубже того, чем он сам думает о себе… Несколько современных историй о персонажах из разных городов и стран, объединены в яркий, напряженный, пропитанный ожиданием и проникающий в душу рассказ о любви. Начинаясь в Вене, захватывающее повествование переносит зрителя в Париж, Лондон, Братиславу, Рио, Денвер и Финикс.

Страна: Великобритания, Австрия, Франция, Бразилия
Продолжительность: 01:50:12
Перевод: Двуголосый закадровый (любительский) ["Чип и Дейл" - Сладкая парочка...]

Кодек: H.264
Качество: HDRip 720p-LQ
Видео: 1280 x 544, ~ 2624 Кбит/с,23.976 fps
Звук:
#1: Русский (AC3, 6 ch, 448 Кбит/с)
#2: Английский (AC3, 6 ch, 384 Кбит/с)
Субтитры:
Английские
Вшитые не отключаемые (на французскую речь)

Семпл


General
Unique ID : 196566218791868432149068557333807228051 (0x93E146D4AC223073B075E0BD7F87E493)
Complete name : E: 360 (2011) [H.264.720p-LQ] HDRip.mkv
Format : Matroska
Format version : Version 2
File size : 2.71 GiB
Duration : 1h 50mn
Overall bit rate : 3 526 Kbps
Encoded date : UTC 2012-10-23 22:31:17
Writing application : mkvmerge v3.3.0 ('Language') built on Mar 24 2010 14:59:24
Writing library : libebml v0.8.0 + libmatroska v0.9.0

Video
ID : 1
Format : AVC
Format/Info : Advanced Video Codec
Format profile : High@L4.1
Format settings, CABAC : Yes
Format settings, ReFrames : 4 frames
Codec ID : V_MPEG4/ISO/AVC
Duration : 1h 50mn
Bit rate : 2 624 Kbps
Width : 1 280 pixels
Height : 544 pixels
Display aspect ratio : 2.35:1
Frame rate : 23.976 fps
Color space : YUV
Chroma subsampling : 4:2:0
Bit depth : 8 bits
Scan type : Progressive
Bits/(Pixel*Frame) : 0.157
Stream size : 2.02 GiB (74%)
Writing library : x264 core 68 r1195bm 5d75a9b
Encoding settings : cabac=1 / ref=4 / deblock=1:0:0 / analyse=0x3:0x13 / me=umh / subme=7 / psy_rd=0.0:0.0 / mixed_ref=1 / me_range=16 / chroma_me=1 / trellis=1 / 8x8dct=1 / cqm=0 / deadzone=21,11 / chroma_qp_offset=0 / threads=1 / thread_queue=1 / nr=0 / decimate=1 / mbaff=0 / bframes=0 / keyint=250 / keyint_min=25 / scenecut=40 / rc=crf / crf=18.0 / qcomp=0.60 / qpmin=10 / qpmax=51 / qpstep=4 / ip_ratio=1.40 / aq=2:1.00
Default : No
Forced : No

Audio #1
ID : 2
Format : AC-3
Format/Info : Audio Coding 3
Mode extension : CM (complete main)
Format settings, Endianness : Big
Codec ID : A_AC3
Duration : 1h 50mn
Bit rate mode : Constant
Bit rate : 448 Kbps
Channel(s) : 6 channels
Channel positions : Front: L C R, Side: L R, LFE
Sampling rate : 48.0 KHz
Bit depth : 16 bits
Compression mode : Lossy
Stream size : 353 MiB (13%)
Title : Chip i Deil
Language : Russian
Default : Yes
Forced : No

Audio #2
ID : 3
Format : AC-3
Format/Info : Audio Coding 3
Mode extension : CM (complete main)
Format settings, Endianness : Big
Codec ID : A_AC3
Duration : 1h 50mn
Bit rate mode : Constant
Bit rate : 384 Kbps
Channel(s) : 6 channels
Channel positions : Front: L C R, Side: L R, LFE
Sampling rate : 48.0 KHz
Bit depth : 16 bits
Compression mode : Lossy
Stream size : 303 MiB (11%)
Language : English
Default : No
Forced : No




реклама партнёра


Вернуться к началу
 Профиль  
 
   Похожие торренты   Автор   Торрент   Размер 
В этой теме нет новых непрочитанных сообщений. Выпускник / Commitment / Dongchangsaeng [боевик, драма, мелодрама, 2013] HDRip 720p, dvo

Dracon

16 | 2

2.51 ГБ

В этой теме нет новых непрочитанных сообщений. Частные уроки / Fancy Walk (Ко Гён А) [2013, драма, мелодрама, эротика, HDRip 720p] mvo

Nickolas3435

230 | 15

2.55 ГБ

В этой теме нет новых непрочитанных сообщений. Тайны Смолвиля / Smallville [S01-10] [фантастика, драма, мелодрама, приключения, 2001-2011] WEB-DLRip, DVDRip, HDRip, Mvo [СТС]

salma3

83 | 206

79.92 ГБ

В этой теме нет новых непрочитанных сообщений. Сердце Леона (Сердце Льва) / Corazon de Leon [Мелодрама, комедия, 2013] HDRip 720p, Sub

marya111

54 | 10

1.86 ГБ

В этой теме нет новых непрочитанных сообщений. Продавщица / Shopgirl [драма, мелодрама, 2005] WEB-DL 720p, Dub+Sub

salma3

29 | 5

3.8 ГБ

В этой теме нет новых непрочитанных сообщений. Она / Her [Мелодрама, драма, фантастика, 2013] BDRip 720p, dub+mvo+Avo+Sub

Dracon

149 | 6

10.58 ГБ

В этой теме нет новых непрочитанных сообщений. Лучшее во мне / The Best of Me [Драма, Мелодрама, 2014] WEB-DL 720p, Dub [iTunes]

Dracon

11 | 3

3.59 ГБ


Начать новую тему Ответить на тему  [ 1 сообщение ] 




Для Мосгорсуда, Роскомнадзора и рекламодателей:: mosgorsud-torrent[собачка]yandex.ru