Торрент файл
скачать торрент магнет ссылка Добавлен: 24 окт 2012, 21:06
Размер: 1.45 ГБ
Сидеров: 4
Личеров: 4
Автор

СообщениеДобавлено: 24 окт 2012, 21:06 

Не в сети
Супермодератор
Аватара пользователя
Дата регистрации:
15 фев 2012, 16:44
Возраст: 27
Спасибо: 5139 / 2089
Сообщения: 17429
Тайна клуба Цунами / Tsunami Beach Club

Год выпуска: 2008
Страна: США
Студия: Redshell Entertainment
Перевод: Профессиональный (многоголосый закадровый)
Субтитры: нет
Оригинальная аудиодорожка: нет
Жанр:триллер, детектив
Продолжительность: 01:28:30
Режиссер: Энтони Фанхаузер / Anthony Fankhauser
В ролях: Роберт МакЭти, Кери Сандерс, Херман Синицин, Teresa Berkin, Chad Burlin, Серджо Кандидо, Никки Кристи, Лиза Фрэнкс, Jacob Golbe, Eddie Jesse Hegel...


Описание: Серия загадочных убийств потрясла Лос-Анджелес, но полиция бессильна перед лицом изощренного преступника. Страховой агент, клиентами чьей компании были некоторые убитые, проводит собственное расследование. Жертв объединяет только одно - все они за день до смерти получили приглашение в элитный клуб. Но попытавшись найти это заведение, агент понимает, что клуба "Цунами" просто не существует...



Исходник: DVD5 R5
Качество: DVDRip
Формат: AVI
Видео: 720x400 (16:9), 25.000 fps, XviD MPEG-4 ~1880 kbps avg, 0.261 bit/pixel
Аудио: Russian, AC3, 5/1 ch, 448 kbps, Delay 0 mSec
Раздача от:

Общее
Полное имя: Tayna.kluba.Tsunami.2008.P.DVDRip_[Youtracker]_by_avproh.avi
Формат: AVI
Формат/Информация: Audio Video Interleave
Размер файла: 1,45 Гбайт
Продолжительность: 1 ч. 28 м.
Общий поток: 2338 Кбит/сек
Программа кодирования: VirtualDubMod 1.5.10.3 | http://www.virtualdub-fr.org || (build 2550/release)
Библиотека кодирования: VirtualDubMod build 2550/release

Видео
Идентификатор: 0
Формат: MPEG-4 Visual
Профиль формата: Advanced Simple@L5
Параметр BVOP формата: 1
Параметр QPel формата: Нет
Параметр GMC формата: Без точки перехода
Параметр матрицы формата: Выборочная
Идентификатор кодека: XVID
Идентификатор кодека/Подсказка: XviD
Продолжительность: 1 ч. 28 м.
Битрейт: 1880 Кбит/сек
Ширина: 720 пикселей
Высота: 400 пикселей
Соотношение сторон: 16:9
Частота кадров: 25,000 кадров/сек
Цветовое пространство: YUV
Субдискретизация насыщенности: 4:2:0
Битовая глубина: 8 бит
Тип развёртки: Прогрессивная
Метод сжатия: С потерями
Бит/(Пиксели*Кадры): 0.261
Размер потока: 1,16 Гбайт (80%)
Библиотека кодирования: XviD 65

Аудио
Идентификатор: 1
Формат: AC-3
Формат/Информация: Audio Coding 3
Расширение режима: CM (complete main)
Параметр Endianness формата: Big
Идентификатор кодека: 2000
Продолжительность: 1 ч. 28 м.
Вид битрейта: Постоянный
Битрейт: 448 Кбит/сек
Каналы: 6 каналов
Расположение каналов: Front: L C R, Side: L R, LFE
Частота: 48,0 КГц
Битовая глубина: 16 бит
Метод сжатия: С потерями
Размер потока: 284 Мбайт (19%)
Выравнивание: Разделение по промежуткам
Продолжительность промежутка: 40мс. (1,00 видеокадр)
Время предзагрузки промежутка: 500мс.







реклама партнёра


Вернуться к началу
 Профиль Отправить личное сообщение  
 
   Похожие торренты   Автор   Торрент   Размер 
В этой теме нет новых непрочитанных сообщений. Тайна / Семейные тайны / Rahasya [триллер, детектив, 2015] DVDRip, Mvo [Zee TV]

salma3

3 | 3

1.43 ГБ

В этой теме нет новых непрочитанных сообщений. Тайна в их глазах / Secret in Their Eyes [Триллер, детектив, 2015] HDRip, Dub

Dracon

6229 | 175

1.37 ГБ

В этой теме нет новых непрочитанных сообщений. Тайна в их глазах / Secret in Their Eyes [Триллер, детектив, 2015] HDRip, Dub [iTunes]

salma3

35 | 7

1.45 ГБ

В этой теме нет новых непрочитанных сообщений. Тайна в их глазах / Secret in Their Eyes [Триллер, детектив, 2015] BDRip 720p, Dub

Dracon

729 | 11

5.76 ГБ

В этой теме нет новых непрочитанных сообщений. Тайна в его глазах / El secreto de sus ojos [триллер, драма, детектив, 2009] BDRip 720p, Mvo+2Avo+Sub

salma3

44 | 12

5.18 ГБ

В этой теме нет новых непрочитанных сообщений. Три сыщика и тайна замка ужасов / The Three Investigators and the Secret of Terror Castle [детектив, приключения, семейный, 2009] DVDRip, Avo

salma3

61 | 4

1.37 ГБ

В этой теме нет новых непрочитанных сообщений. Цунами: нет выхода / Tidal Wave: No Escape [драма, катастрофа, 1997] DVDRip, Dvo

salma3

25 | 4

1.49 ГБ


Начать новую тему Ответить на тему  [ 1 сообщение ] 




Для Мосгорсуда, Роскомнадзора и рекламодателей:: mosgorsud-torrent[собачка]yandex.ru