Торрент файл
скачать торрент магнет ссылка Добавлен: 24 окт 2012, 20:22
Размер: 2.19 ГБ
Сидеров: 7
Личеров: 2
Статус: (Dracon)
Автор

СообщениеДобавлено: 24 окт 2012, 20:22 

Не в сети
Зам. Админа
Аватара пользователя
Дата регистрации:
02 дек 2010, 12:39
Спасибо: 12461 / 214
Сообщения: 27968
«Сражайся. Или умри»


Страна: США
Жанр:фантастика, триллер, драма
Год выпуска: 2011
Продолжительность: 01:26:24

Перевод: Профессиональный (многоголосый, закадровый)
Cубтитры: русский
Оригинальная аудиодорожка: английский

Режиссер: Дуглас Арниокоски / Douglas Aarniokoski

В ролях: Шон Эшмор, Эшли Белл, Кори Хардрикт, Доминик Монахэн, Шаннин Соссамон, Майкл Эклунд, Брайана Барнс, Кэссиди Верро, София Эванюк, Роберт Болдуин...

Описание: После вселенской катастрофы Земля превратилась в выжженную пустыню. По бескрайним дорогам, кишащим бандитами, враждующими между собой за еду, странствуют пятеро. Надеясь найти покой, они останавливаются в доме, который легко превращается в ловушку. Сможет ли кто-то выйти живым?






Исходник: Blu-ray 1080p
Качество: BDRip-AVC
Контейнер: MKV

Видео:1024x576 (16:9), 24.000 fps, H264 ~2580 kbps avg, 0.182 bit/pixel
Аудио 1: Русский, 48 kHz, AC3 Dolby Digital, 3/2 (L,C,R,l,r) + LFE ch, 448.00 kbps Const
Аудио 2: Английский, 48 kHz, AC3 Dolby Digital, 3/2 (L,C,R,l,r) + LFE ch, 448.00 kbps Const
Формат субтитров: SoftSub (srt)
Дополнительно: в файле сохранены чаптеры, как на исходном Blu-ray диске.

Общее
Полное имя: Sudnyi.den.2011.P.BDRip-AVC_[Youtracker]_by_avproh.mkv
Формат: Matroska
Версия формата: Version 2
Размер файла: 2,19 Гбайт
Продолжительность: 1 ч. 30 м.
Общий поток: 3478 Кбит/сек
Дата кодирования: UTC 2012-10-24 14:44:15
Программа кодирования: mkvmerge v5.8.0 ('No Sleep / Pillow') built on Sep2 2012 15:37:04
Библиотека кодирования: libebml v1.2.3 + libmatroska v1.3.0

Видео
Идентификатор: 1
Формат: AVC
Формат/Информация: Advanced Video Codec
Профиль формата: High@L4.1
Параметр CABAC формата: Да
Параметр ReFrames формата: 11 кадров
Идентификатор кодека: V_MPEG4/ISO/AVC
Продолжительность: 1 ч. 30 м.
Битрейт: 2580 Кбит/сек
Ширина: 1024 пикселя
Высота: 576 пикселей
Соотношение сторон: 16:9
Частота кадров: 24,000 кадра/сек
Цветовое пространство: YUV
Субдискретизация насыщенности: 4:2:0
Битовая глубина: 8 бит
Тип развёртки: Прогрессивная
Бит/(Пиксели*Кадры): 0.182
Размер потока: 1,58 Гбайт (72%)
Библиотека кодирования: x264 core 119 r2106 07efeb4
Настройки программы: cabac=1 / ref=11 / deblock=1:-2:-1 / analyse=0x3:0x113 / me=umh / subme=9 / psy=1 / psy_rd=1.00:0.10 / mixed_ref=1 / me_range=32 / chroma_me=1 / trellis=2 / 8x8dct=1 / cqm=0 / deadzone=21,11 / fast_pskip=1 / chroma_qp_offset=-3 / threads=9 / sliced_threads=0 / nr=0 / decimate=1 / interlaced=0 / bluray_compat=0 / constrained_intra=0 / bframes=10 / b_pyramid=2 / b_adapt=2 / b_bias=0 / direct=3 / weightb=1 / open_gop=0 / weightp=2 / keyint=240 / keyint_min=23 / scenecut=40 / intra_refresh=0 / rc_lookahead=80 / rc=2pass / mbtree=1 / bitrate=2580 / ratetol=1.0 / qcomp=0.60 / qpmin=0 / qpmax=69 / qpstep=4 / cplxblur=20.0 / qblur=0.5 / ip_ratio=1.40 / aq=2:0.90
Язык: English
Default: Да
Forced: Нет

Аудио #1
Идентификатор: 2
Формат: AC-3
Формат/Информация: Audio Coding 3
Расширение режима: CM (complete main)
Параметр Endianness формата: Big
Идентификатор кодека: A_AC3
Продолжительность: 1 ч. 30 м.
Вид битрейта: Постоянный
Битрейт: 448 Кбит/сек
Каналы: 6 каналов
Расположение каналов: Front: L C R, Side: L R, LFE
Частота: 48,0 КГц
Битовая глубина: 16 бит
Метод сжатия: С потерями
Размер потока: 288 Мбайт (13%)
Заголовок: MVO 5.1 448 kbps
Язык: Russian
Default: Да
Forced: Нет

Аудио #2
Идентификатор: 3
Формат: AC-3
Формат/Информация: Audio Coding 3
Расширение режима: CM (complete main)
Параметр Endianness формата: Big
Идентификатор кодека: A_AC3
Продолжительность: 1 ч. 30 м.
Вид битрейта: Постоянный
Битрейт: 448 Кбит/сек
Каналы: 6 каналов
Расположение каналов: Front: L C R, Side: L R, LFE
Частота: 48,0 КГц
Битовая глубина: 16 бит
Метод сжатия: С потерями
Размер потока: 288 Мбайт (13%)
Заголовок: Original 5.1 448 kbps
Язык: English
Default: Нет
Forced: Нет

Текст
Идентификатор: 4
Формат: UTF-8
Идентификатор кодека: S_TEXT/UTF8
Идентификатор кодека/Информация: UTF-8 Plain Text
Язык: Russian
Default: Нет
Forced: Нет

Меню
00:00:00.000: en:00:00:00.000
00:06:26.500: en:00:06:26.500
00:11:35.958: en:00:11:35.958
00:18:30.667: en:00:18:30.667
00:25:32.333: en:00:25:32.333
00:31:52.167: en:00:31:52.167
00:40:28.000: en:00:40:28.000
00:54:47.750: en:00:54:47.750
00:58:57.083: en:00:58:57.083
01:04:46.542: en:01:04:46.542
01:11:27.917: en:01:11:27.917
01:20:19.375: en:01:20:19.375






реклама партнёра


Вернуться к началу
 Профиль  
 
   Похожие торренты   Автор   Торрент   Размер 
В этой теме нет новых непрочитанных сообщений. Судный день / Doomsday [фантастика, боевик, 2008] BDRip 720p, Dub+Sub [Theatrical Cut]

salma3

156 | 19

6.76 ГБ

В этой теме нет новых непрочитанных сообщений. Судный день / Judgment Day [Фантастика, боевик, триллер, 1999] DVDRip, Mvo

salma3

10 | 2

1.37 ГБ

В этой теме нет новых непрочитанных сообщений. Терминатор 2: Судный день / Terminator 2: Judgment Day [Фантастика, боевик, триллер, 1991] Blu-Ray Remux 1080p, Mvo+Sub [Director's Cut]

salma3

72 | 16

24.16 ГБ

В этой теме нет новых непрочитанных сообщений. Проклятая волна / Плотина 999 / Dam999 [фантастика, триллер, драма, приключения, 2011] BDRip 1080p, Mvo

salma3

6 | 3

10.6 ГБ

В этой теме нет новых непрочитанных сообщений. Голодные игры: Дилогия / The Hunger Games: Dilogy [драма, боевик, триллер, фантастика, 2011-2013] BDRip, Dub [Лицензия]

salma3

57 | 10

5.83 ГБ

В этой теме нет новых непрочитанных сообщений. Коматозники / Flatliners [фантастика, триллер, драма, 1990] BDRip 720p, Dub

salma3

22 | 3

5.99 ГБ

В этой теме нет новых непрочитанных сообщений. Тихий час / The Quiet Hour [фантастика, триллер, драма, 2014] BDRip, Mvo

salma3

222 | 94

1.45 ГБ


Начать новую тему Ответить на тему  [ 1 сообщение ] 




Для Мосгорсуда, Роскомнадзора и рекламодателей:: mosgorsud-torrent[собачка]yandex.ru