Торрент файл
скачать торрент магнет ссылка Добавлен: 24 окт 2012, 11:44
Размер: 1.46 ГБ
Сидеров: 16
Личеров: 2
Статус: (Dracon)
Автор

СообщениеДобавлено: 24 окт 2012, 11:44 

В сети
Супермодератор
Аватара пользователя
Дата регистрации:
15 фев 2012, 16:44
Возраст: 27
Спасибо: 5141 / 2090
Сообщения: 17471
Подземелье драконов 3 / Dungeons & Dragons: The Book of Vile Darkness
Год выпуска: 2012
Страна: Великобритания
Студия: Zinc Entertainment Inc.
Перевод: Профессиональный (многоголосый закадровый)
Субтитры: нет
Оригинальная аудиодорожка: нет
Жанр:фэнтези
Продолжительность: 01:26:22
Режиссер: Джерри Лайвли / Gerry Lively
В ролях: Миган Гуд, Джеймс Роулингс, Энтони Хауэлл, Элеанор Гекс, Остин Нолти, Бо Брассо, Доминик Мафэм, Jack Derges, Яна Титова, Алексис Дэниэл...

Описание: 2000 лет назад могучий колдун Нагрул, вселявший в людские сердца страх и отчаяние, перед лицом смерти продал свою душу Демону, чтобы его полный ненависти дух выжил, когда его тело умрет. В мучительном ритуале, верные слуги сделали из кожи мага страницы, из раздробленных костей сделали обложку, а его мертвой кровью написали Книгу Заклинаний. Любой прочитавший ее, либо терял разум, либо, ослепленный темными знаниями, вставал на сторону Зла. Стремительно растущая армия тьмы покоряла все новые и новые территории, следуя наставлениям своего хозяина, сея хаос и разрушения.
На борьбу со Злом встал Орден Рыцарей Нового Солнца. Чистота их сердец была так велика, что Пела — бог света, даровал им могучие амулеты, с помощью которых воинам удалось разбить огромную армию врага. Но верные служители Нагрула успели спрятать книгу. И никто из ордена не мог найти ее. Постепенно поиски прекратились. Воцарившейся мир быстро стер в памяти людей темные времена. Но слуги Нагрула только ждали подходящего момента…





Исходник: DVD5 R5
Качество: DVDRip
Формат: AVI
Видео: 720x400 (16:9), 25.000 fps, XviD MPEG-4 ~1957 kbps avg, 0.272 bit/pixel
Аудио: Russian, AC3, 5/1 ch, 448 kbps, Delay 0 mSec


Общее
Полное имя: Podzemelye.drakonov.3.2012.P.DVDRip_[Youtracker]_by_avproh.avi
Формат: AVI
Формат/Информация: Audio Video Interleave
Размер файла: 1,46 Гбайт
Продолжительность: 1 ч. 26 м.
Общий поток: 2414 Кбит/сек
Программа кодирования: VirtualDubMod 1.5.10.3 | http://www.virtualdub-fr.org || (build 2550/release)
Библиотека кодирования: VirtualDubMod build 2550/release

Видео
Идентификатор: 0
Формат: MPEG-4 Visual
Профиль формата: Advanced Simple@L5
Параметр BVOP формата: 1
Параметр QPel формата: Нет
Параметр GMC формата: Без точки перехода
Параметр матрицы формата: Выборочная
Идентификатор кодека: XVID
Идентификатор кодека/Подсказка: XviD
Продолжительность: 1 ч. 26 м.
Битрейт: 1957 Кбит/сек
Ширина: 720 пикселей
Высота: 400 пикселей
Соотношение сторон: 16:9
Частота кадров: 25,000 кадров/сек
Цветовое пространство: YUV
Субдискретизация насыщенности: 4:2:0
Битовая глубина: 8 бит
Тип развёртки: Прогрессивная
Метод сжатия: С потерями
Бит/(Пиксели*Кадры): 0.272
Размер потока: 1,18 Гбайт (81%)
Библиотека кодирования: XviD 65

Аудио
Идентификатор: 1
Формат: AC-3
Формат/Информация: Audio Coding 3
Расширение режима: CM (complete main)
Параметр Endianness формата: Big
Идентификатор кодека: 2000
Продолжительность: 1 ч. 26 м.
Вид битрейта: Постоянный
Битрейт: 448 Кбит/сек
Каналы: 6 каналов
Расположение каналов: Front: L C R, Side: L R, LFE
Частота: 48,0 КГц
Битовая глубина: 16 бит
Метод сжатия: С потерями
Размер потока: 277 Мбайт (19%)
Выравнивание: Разделение по промежуткам
Продолжительность промежутка: 40мс. (1,00 видеокадр)
Время предзагрузки промежутка: 500мс.







реклама партнёра


Вернуться к началу
 Профиль Отправить личное сообщение  
 
   Похожие торренты   Автор   Торрент   Размер 
В этой теме нет новых непрочитанных сообщений. Подземелье драконов / Dungeons & Dragons [фэнтези, приключения, 2000] BDRip 1080, Dub+Sub

salma3

25 | 2

7.63 ГБ

В этой теме нет новых непрочитанных сообщений. Бой Драконов / Битва Драконов / Dragonfight [Фантастика, боевик, 1990] DVDRip, Dvo

salma3

5 | 3

1.33 ГБ

В этой теме нет новых непрочитанных сообщений. The Vile Impurity - Anathema (EP) [Апрель 2012, Technical Deathcore, Death Metal, MP3]

PriZraK

0 | 1

50.86 МБ

В этой теме нет новых непрочитанных сообщений. Подземелье мертвых / Мертвая шахта / Dead Mine [ужасы, боевик, 2012] HDRip, Mvo

salma3

312 | 9

1.36 ГБ

В этой теме нет новых непрочитанных сообщений. Подземелье мертвых / Мертвая шахта / Dead Mine [Ужасы, боевик, 2012] BDRip 1080p, Mvo+Sub

salma3

40 | 6

8.2 ГБ

В этой теме нет новых непрочитанных сообщений. Подземелье мертвых / Мертвая шахта / Dead Mine [Ужасы, боевик, 2012] BDRip 720p, Mvo+Sub

salma3

60 | 10

4.63 ГБ

В этой теме нет новых непрочитанных сообщений. Подземелье мертвых / Мертвая шахта / Dead Mine [Ужасы, боевик, 2012] Blu-Ray Remux 1080p, Mvo+Sub

salma3

25 | 5

19.68 ГБ


Начать новую тему Ответить на тему  [ 1 сообщение ] 




Для Мосгорсуда, Роскомнадзора и рекламодателей:: mosgorsud-torrent[собачка]yandex.ru