Торрент файл
скачать торрент магнет ссылка Добавлен: 23 окт 2012, 10:07
Размер: 1.45 ГБ
Сидеров: 38
Личеров: 4
Статус: (Dracon)
Автор

СообщениеДобавлено: 23 окт 2012, 10:07 

Не в сети
Зам. Админа
Аватара пользователя
Дата регистрации:
02 дек 2010, 12:39
Спасибо: 12461 / 214
Сообщения: 27968

Год выхода: 2011
Жанр: фантастика, триллер, драма
Режиссер: Дуглас Арниокоски
В ролях: Шон Эшмор, Эшли Белл, Кори Хардрикт, Доминик Монахэн, Шаннин Соссамон, Майкл Эклунд, Брайана Барнс, Кэссиди Верро, София Эванюк, Роберт Болдуин

О фильме:
После вселенской катастрофы Земля превратилась в выжженную пустыню. По бескрайним дорогам, кишащим бандитами, враждующими между собой за еду, странствуют пятеро. Надеясь найти покой, они останавливаются в доме, который легко превращается в ловушку. Сможет ли кто-то выйти живым?


Страна: США
Продолжительность: 1:30:00
Перевод: Многоголосый закадровый (профессиональный) | Лицензия

Кодек: h.264
Качество: BDRip-AVC
Видео: 1024x576 (16:9), 24,000fps, 1921kbps, 0.136 bit/pixel
Звук: 48 kHz, AC3 5.1, 384.00 kbps



Общее
Уникальный идентификатор : 203987103460945285638669837109535428902 (0x99767CB16F0E8D91A95F476F4F93D126)
Полное имя : D:The Day.2011.BDRip-AVC.mkv
Формат : Matroska
Версия формата : Version 2
Размер файла : 1,45 Гбайт
Продолжительность : 1 ч. 30 м.
Общий поток : 2306 Кбит/сек
Название фильма : Судный день / The Day (2011) DRip-AVC Rulya74
Дата кодирования : UTC 2012-10-23 05:08:42
Программа кодирования : mkvmerge v5.7.0 ('The Whirlwind') built on Jul 8 2012 20:08:51
Библиотека кодирования : libebml v1.2.3 + libmatroska v1.3.0

Видео
Идентификатор : 1
Формат : AVC
Формат/Информация : Advanced Video Codec
Профиль формата : High@L4.1
Параметр CABAC формата : Да
Параметр ReFrames формата : 9 кадров
Идентификатор кодека : V_MPEG4/ISO/AVC
Продолжительность : 1 ч. 30 м.
Битрейт : 1921 Кбит/сек
Ширина : 1024 пикселя
Высота : 576 пикселей
Соотношение сторон : 16:9
Частота кадров : 24,000 кадра/сек
Цветовое пространство : YUV
Субдискретизация насыщенности : 4:2:0
Битовая глубина : 8 бит
Тип развёртки : Прогрессивная
Бит/(Пиксели*Кадры) : 0.136
Размер потока : 1,18 Гбайт (81%)
Библиотека кодирования : x264 core 128 r2216 198a7ea
Настройки программы : cabac=1 / ref=9 / deblock=1:-3:-2 / analyse=0x3:0x113 / me=umh / subme=10 / psy=1 / psy_rd=1.01:0.07 / mixed_ref=1 / me_range=32 / chroma_me=1 / trellis=2 / 8x8dct=1 / cqm=0 / deadzone=21,11 / fast_pskip=0 / chroma_qp_offset=-3 / threads=6 / lookahead_threads=1 / sliced_threads=0 / nr=0 / decimate=1 / interlaced=0 / bluray_compat=0 / constrained_intra=0 / bframes=8 / b_pyramid=2 / b_adapt=2 / b_bias=0 / direct=3 / weightb=1 / open_gop=0 / weightp=2 / keyint=240 / keyint_min=22 / scenecut=40 / intra_refresh=0 / rc_lookahead=40 / rc=2pass / mbtree=1 / bitrate=1921 / ratetol=1.0 / qcomp=0.60 / qpmin=0 / qpmax=69 / qpstep=4 / cplxblur=20.0 / qblur=0.5 / ip_ratio=1.40 / aq=2:1.00
Default : Да
Forced : Нет

Аудио
Идентификатор : 2
Формат : AC-3
Формат/Информация : Audio Coding 3
Расширение режима : CM (complete main)
Идентификатор кодека : A_AC3
Продолжительность : 1 ч. 30 м.
Вид битрейта : Постоянный
Битрейт : 384 Кбит/сек
Каналы : 6 каналов
Расположение каналов : Front: L C R, Side: L R, LFE
Частота : 48,0 КГц
Битовая глубина : 16 бит
Метод сжатия : С потерями
Размер потока : 247 Мбайт (17%)
Язык : Russian
Default : Да
Forced : Нет














реклама партнёра


Вернуться к началу
 Профиль  
 
   Похожие торренты   Автор   Торрент   Размер 
В этой теме нет новых непрочитанных сообщений. Судный день / Doomsday [фантастика, боевик, 2008] BDRip 720p, Dub+Sub [Theatrical Cut]

salma3

156 | 19

6.76 ГБ

В этой теме нет новых непрочитанных сообщений. Судный день / Judgment Day [Фантастика, боевик, триллер, 1999] DVDRip, Mvo

salma3

10 | 2

1.37 ГБ

В этой теме нет новых непрочитанных сообщений. Голодные игры: Дилогия / The Hunger Games: Dilogy [драма, боевик, триллер, фантастика, 2011-2013] BDRip, Dub [Лицензия]

salma3

57 | 10

5.83 ГБ

В этой теме нет новых непрочитанных сообщений. Терминатор 2: Судный день / Terminator 2: Judgment Day [Фантастика, боевик, триллер, 1991] Blu-Ray Remux 1080p, Mvo+Sub [Director's Cut]

salma3

72 | 16

24.16 ГБ

В этой теме нет новых непрочитанных сообщений. Оставленные / Left Behind [Фантастика, триллер, драма, 2014] BDRip-AVC, Dub [Лицензия]

salma3

539 | 24

1.46 ГБ

В этой теме нет новых непрочитанных сообщений. Оставленные / Left Behind [фантастика, триллер, драма, 2014] BDRip 1080p, Dub [Лицензия]

Dracon

659 | 29

7.48 ГБ

В этой теме нет новых непрочитанных сообщений. Гравитация / Gravity [Фантастика, Триллер, Драма, 2013] BDRip 1080p, Dub+Sub [лицензия | 3D-Video]

Dracon

489 | 34

12.09 ГБ


Начать новую тему Ответить на тему  [ 1 сообщение ] 




Для Мосгорсуда, Роскомнадзора и рекламодателей:: mosgorsud-torrent[собачка]yandex.ru