Торрент файл
скачать торрент магнет ссылка Добавлен: 22 окт 2012, 13:20
Размер: 1.37 ГБ
Сидеров: 7
Личеров: 6
Статус: (salma3)
Автор

СообщениеДобавлено: 22 окт 2012, 13:20 

Не в сети
Супермодератор
Аватара пользователя
Дата регистрации:
15 фев 2012, 16:44
Возраст: 28
Спасибо: 7165 / 2147
Сообщения: 62215

Железные кулаки / Кастет / Fists of Iron


Год выхода: 1995
Жанр: Боевик, приключения
Режиссер: Ричард У. Манчкин /Richard W. Munchkin
В ролях: Майкл Уорт, Дженили Хэррисон, Маршалл Тиг, Мэттайэс Хьюз, Эрик Ли, Ник Хилл, Сэм Джоунс

О фильме:Молодой парень (Уорт), работающий автослесарем, неплохо умеющий драться и держать удар, приходит со своим другом посмотреть на кулачные бои, ведущиеся без правил. А вернее, в них одно правило - победить надо любой ценой. В конце поединка на арену пригласили желающих продержаться одну минуту против чемпиона. Друг вышел на бой, продержался минуту, но ночью умер. Тогда слесарь решил отомстить за смерть друга.






Выпущено: США
Продолжительность: 01:30:44
Перевод: Авторский (одноголосый, закадровый) - Вартан Дохалов


Кодек: XviD - Совместимо с бытовыми DVD-плеерами
Качество: DVDRip(Исходник - DVD 5. Спасибо loxaba)
Видео:720x552 (1.30:1), 23.976 fps, XviD build 65 ~1959 kbps avg, 0.20 bit/pixel
Аудио:48 kHz, AC3 Dolby Digital, 2/0 (L,R) ch, ~192 kbps


- Детям до 17 лет обязательно присутствие родителей


Общее
Полное имя:Geleznie.kylaki.1995.XviD.DVDRip.AVO_SergV.avi
Формат: AVI
Формат/Информация: Audio Video Interleave
Размер файла: 1,37 Гбайт
Продолжительность: 1 ч. 30 м.
Общий поток: 2161 Кбит/сек
Название фильма: Geleznie.kylaki.1995.XviD.DVDRip.AVO_SergV
Программа кодирования: VirtualDubMod 1.5.10.3 | http://www.virtualdub-fr.org || (build 2550/release)
Примечание: Рип от SergV

Видео
Идентификатор: 0
Формат: MPEG-4 Visual
Профиль формата: Advanced Simple@L5
Параметр BVOP формата: 2
Параметр QPel формата: Нет
Параметр GMC формата: Без точки перехода
Параметр матрицы формата: Default (MPEG)
Идентификатор кодека: XVID
Идентификатор кодека/Подсказка: XviD
Продолжительность: 1 ч. 30 м.
Битрейт: 1960 Кбит/сек
Ширина: 720 пикселей
Высота: 552 пикселя
Соотношение сторон: 4:3
Частота кадров: 23,976 кадра/сек
Цветовое пространство: YUV
Субдискретизация насыщенности: 4:2:0
Битовая глубина: 8 бит
Тип развёртки: Прогрессивная
Метод сжатия: С потерями
Бит/(Пиксели*Кадры): 0.206
Размер потока: 1,24 Гбайт (91%)
Библиотека кодирования: XviD 65

Аудио
Идентификатор: 1
Формат: AC-3
Формат/Информация: Audio Coding 3
Расширение режима: CM (complete main)
Параметр Endianness формата: Big
Идентификатор кодека: 2000
Продолжительность: 1 ч. 30 м.
Вид битрейта: Постоянный
Битрейт: 192 Кбит/сек
Каналы: 2 канала
Расположение каналов: Front: L R
Частота: 48,0 КГц
Битовая глубина: 16 бит
Метод сжатия: С потерями
Размер потока: 125 Мбайт (9%)
Выравнивание: Разделение по промежуткам
Продолжительность промежутка: 42мс. (1,00 видеокадр)
Время предзагрузки промежутка: 500мс.




Релиз от:



Вернуться к началу
 Профиль Отправить личное сообщение  
 
   Похожие торренты   Автор   Торрент   Размер 
В этой теме нет новых непрочитанных сообщений. Aziani's Iron Girls 2 / Железные Девушки Азиани 2 (Rachel Aziani, Aziani Iron) [2017 г., All Sex, Fetish, Gonzo, Masturbation, Muscled Babes, Sex Toy Play, DVDRip]

salma3

2 | 0

1.95 ГБ

В этой теме нет новых непрочитанных сообщений. Aziani's Iron Girls 3 / Железные Девушки Азиани 3 (Rachel Aziani, Aziani Iron) [2017 г., All Sex, Fetish, Gonzo, Masturbation, Muscled Babes, Sex Toy Play, DVDRip]

salma3

2 | 1

1.97 ГБ

В этой теме нет новых непрочитанных сообщений. Кровавые кулаки / Тhe Bloody fists / Dang kou tan [Боевые искусства, 1972] DVD9, Dvo

salma3

7 | 3

4.41 ГБ

В этой теме нет новых непрочитанных сообщений. Бамбуковые боги и стальные бойцы / Bamboo Gods and Iron Men [Боевик, драма, комедия, криминал, приключения, 1974] DVDRip, Avo

salma3

47 | 7

745.3 МБ

В этой теме нет новых непрочитанных сообщений. Каменные кулаки / Hands of Stone [боевик, драма, биография, спорт, 2016] HDRip, Mvo

salma3

3237 | 947

1.46 ГБ

В этой теме нет новых непрочитанных сообщений. Каменные кулаки / Hands of Stone [боевик, драма, биография, спорт, 2016] BDRip 720p, Mvo

salma3

397 | 151

4.72 ГБ

В этой теме нет новых непрочитанных сообщений. Каменные кулаки / Hands of Stone ( боевик, драма, биография, спорт, 2016) BDRip 1080p | L

marya111

69 | 6

8.92 ГБ


Начать новую тему Ответить на тему  [ 1 сообщение ] 




Для Мосгорсуда, Роскомнадзора и рекламодателей:: mosgorsud-torrent[собачка]yandex.ru
cron