Торрент файл
скачать торрент магнет ссылка Добавлен: 20 окт 2012, 10:45
Размер: 1.46 ГБ
Сидеров: 11
Личеров: 2
Статус: (Dracon)
Автор

СообщениеДобавлено: 20 окт 2012, 10:45 

Не в сети
Зам. Админа
Аватара пользователя
Дата регистрации:
02 дек 2010, 12:39
Спасибо: 12461 / 214
Сообщения: 27968

Год выхода: 2012
Жанр: фантастика, боевик, приключения
Режиссер: Марк Уэбб / Marc Webb
В ролях: Эндрю Гарфилд, Эмма Стоун, Рис Иванс, Дэнис Лири, Мартин Шин, Салли Филд, Эмбет Дэвидц, Кэмпбелл Скотт, Ирфан Кхан, Крис Зилка

О фильме:
В детстве Питер Паркер был оставлен своими родителями, и поэтому воспитывался дядей и тётей. Шли годы, Питер был обычным примерным школьником, подвергался нападкам хулиганов и был влюблён в свою одноклассницу Гвен Стэйси, которая сама втайне отвечала ему взаимностью. Но после укуса генетически изменённого паука, Питер получает невероятные сверхспособности и его жизнь меняется навсегда.


Страна: США
Продолжительность: 02:10:43
Перевод: Профессиональный (дублированный) {R5}

Качество: DVDRip-AVC | Сэмпл
Видео: H.264, 720x424@1024x424, 2.40:1, 25 fps, ~1211 kbps
Звук:
Русский: AC3, 48 kHz, 2/0 (L, R), ~192 kbps
Английский: AC3, 48 kHz, 2/0 (L, R), ~192 kbps
Субтитры: русские (полные), английские (полные)


Общее
Полное имя : The.Amazing.Spider-Man.2012.DVDRip-AVC.Rus.Eng.Subs.by.GuNNeR.mkv
Формат : Matroska
Версия формата : Version 2
Размер файла : 1,46 Гбайт
Продолжительность : 2 ч. 10 м.
Общий поток : 1597 Кбит/сек
Название фильма : The Amazing Spider-Man | 2012 | DVDRip-AVC
Дата кодирования : UTC 2012-10-20 04:00:30
Программа кодирования : mkvmerge v5.8.0 ('No Sleep / Pillow') built on Sep 2 2012 15:37:04
Библиотека кодирования : libebml v1.2.3 + libmatroska v1.3.0

Видео
Идентификатор : 1
Формат : AVC
Формат/Информация : Advanced Video Codec
Профиль формата : High@L4.1
Параметр CABAC формата : Да
Параметр ReFrames формата : 16 кадров
Идентификатор кодека : V_MPEG4/ISO/AVC
Продолжительность : 2 ч. 10 м.
Битрейт : 1211 Кбит/сек
Ширина : 720 пикселей
Высота : 424 пикселя
Соотношение сторон : 2,40:1
Частота кадров : 25,000 кадров/сек
Цветовое пространство : YUV
Субдискретизация насыщенности : 4:2:0
Битовая глубина : 8 бит
Тип развёртки : Прогрессивная
Бит/(Пиксели*Кадры) : 0.159
Размер потока : 1,08 Гбайт (74%)
Заголовок : Rip by GuNNeR
Библиотека кодирования : x264 core 119 r2106 07efeb4
Настройки программы : cabac=1 / ref=16 / deblock=1:-1:-1 / analyse=0x3:0x133 / me=umh / subme=10 / psy=1 / psy_rd=1.05:0.05 / mixed_ref=1 / me_range=32 / chroma_me=1 / trellis=2 / 8x8dct=1 / cqm=0 / deadzone=21,11 / fast_pskip=0 / chroma_qp_offset=-3 / threads=4 / sliced_threads=0 / nr=0 / decimate=1 / interlaced=0 / bluray_compat=0 / constrained_intra=0 / bframes=11 / b_pyramid=2 / b_adapt=2 / b_bias=0 / direct=3 / weightb=1 / open_gop=0 / weightp=2 / keyint=240 / keyint_min=24 / scenecut=40 / intra_refresh=0 / rc_lookahead=60 / rc=2pass / mbtree=1 / bitrate=1211 / ratetol=1.0 / qcomp=0.60 / qpmin=10 / qpmax=51 / qpstep=4 / cplxblur=20.0 / qblur=0.5 / ip_ratio=1.40 / aq=2:0.90 / zones=187700,196075,q=35
Язык : English
Default : Да
Forced : Нет

Аудио #1
Идентификатор : 2
Формат : AC-3
Формат/Информация : Audio Coding 3
Расширение режима : CM (complete main)
Идентификатор кодека : A_AC3
Продолжительность : 2 ч. 10 м.
Вид битрейта : Постоянный
Битрейт : 192 Кбит/сек
Каналы : 2 канала
Расположение каналов : Front: L R
Частота : 48,0 КГц
Битовая глубина : 16 бит
Метод сжатия : С потерями
Размер потока : 180 Мбайт (12%)
Заголовок : DUB @ R5
Язык : Russian
Default : Да
Forced : Нет

Аудио #2
Идентификатор : 3
Формат : AC-3
Формат/Информация : Audio Coding 3
Расширение режима : CM (complete main)
Идентификатор кодека : A_AC3
Продолжительность : 2 ч. 10 м.
Вид битрейта : Постоянный
Битрейт : 192 Кбит/сек
Каналы : 2 канала
Расположение каналов : Front: L R
Частота : 48,0 КГц
Битовая глубина : 16 бит
Метод сжатия : С потерями
Размер потока : 180 Мбайт (12%)
Язык : English
Default : Нет
Forced : Нет

Текст #1
Идентификатор : 4
Формат : UTF-8
Идентификатор кодека : S_TEXT/UTF8
Идентификатор кодека/Информация : UTF-8 Plain Text
Заголовок : Full
Язык : Russian
Default : Нет
Forced : Нет

Текст #2
Идентификатор : 5
Формат : UTF-8
Идентификатор кодека : S_TEXT/UTF8
Идентификатор кодека/Информация : UTF-8 Plain Text
Заголовок : Full
Язык : English
Default : Нет
Forced : Нет

Меню
00:00:00.000 : en:Chapter 01
00:07:27.880 : en:Chapter 02
00:14:04.680 : en:Chapter 03
00:22:02.160 : en:Chapter 04
00:31:38.240 : en:Chapter 05
00:39:44.320 : en:Chapter 06
00:46:43.840 : en:Chapter 07
00:52:56.360 : en:Chapter 08
01:00:42.800 : en:Chapter 09
01:09:31.920 : en:Chapter 10
01:14:41.440 : en:Chapter 11
01:21:11.960 : en:Chapter 12
01:26:08.200 : en:Chapter 13
01:30:11.800 : en:Chapter 14
01:38:47.480 : en:Chapter 15
01:47:41.480 : en:Chapter 16
01:55:56.880 : en:Chapter 17
x264 [info]: frame I:2029Avg QP:13.47size: 42273
x264 [info]: frame P:48292 Avg QP:16.90size: 13466
x264 [info]: frame B:145754 Avg QP:21.88size:3092
x264 [info]: consecutive B-frames:3.8%5.0% 15.2% 17.7% 20.2% 25.9%7.2%0.7%0.7%0.1%1.4%2.1%




реклама партнёра


Вернуться к началу
 Профиль  
 
   Похожие торренты   Автор   Торрент   Размер 
В этой теме нет новых непрочитанных сообщений. Новый Человек-паук / The Amazing Spider-Man [фантастика, боевик, приключения, 2012] BDRip, Avo [Гаврилов]

salma3

23 | 3

1.46 ГБ

В этой теме нет новых непрочитанных сообщений. Новый Человек-паук: Высокое напряжение / The Amazing Spider-Man 2: Rise of Electro [фэнтези, боевик, приключения, 2014] BDRip-AVC, Dub+Sub [Лицензия]

Dracon

479 | 31

2.91 ГБ

В этой теме нет новых непрочитанных сообщений. Новый Человек-паук: Высокое напряжение / The Amazing Spider-Man 2 [фэнтези, боевик, приключения, 2014] BDRip 1080p, Dub+Sub [Лицензия | 3D-Video]

Dracon

136 | 18

13.57 ГБ

В этой теме нет новых непрочитанных сообщений. Новый Человек-паук: Высокое напряжение / The Amazing Spider-Man 2: Rise of Electro [фэнтези, боевик, приключения, 2014] BDRip 720p, Dub+Sub [Лицензия]

Dracon

177 | 8

4.03 ГБ

В этой теме нет новых непрочитанных сообщений. Новый Человек-паук: Высокое напряжение / The Amazing Spider-Man 2 [фэнтези, боевик, приключения, 2014] HDRip, Dub [iPad]

salma3

37 | 3

1.85 ГБ

В этой теме нет новых непрочитанных сообщений. Новый Человек-паук: Высокое напряжение / The Amazing Spider-Man 2: Rise of Electro [фэнтези, боевик, приключения, 2014] WEB-DL 720p, Dub+Sub [iTunes]

Dracon

345 | 6

4.93 ГБ

В этой теме нет новых непрочитанных сообщений. Новый Человек-паук: Высокое напряжение / The Amazing Spider-Man 2: Rise of Electro [фэнтези, боевик, приключения, 2014] WEB-DLRip, Dub [iTunes]

Dracon

346 | 7

2.05 ГБ


Начать новую тему Ответить на тему  [ 1 сообщение ] 




Для Мосгорсуда, Роскомнадзора и рекламодателей:: mosgorsud-torrent[собачка]yandex.ru