Торрент файл
скачать торрент магнет ссылка Добавлен: 19 окт 2012, 21:46
Размер: 1.46 ГБ
Сидеров: 128
Личеров: 4
Статус: (Dracon)
Автор

СообщениеДобавлено: 19 окт 2012, 21:46 

Не в сети
Супермодератор
Аватара пользователя
Дата регистрации:
15 фев 2012, 16:44
Возраст: 27
Спасибо: 5139 / 2089
Сообщения: 17432
Оборотень / Werewolf: The Beast Among Us

Перевод: Любительский (двухголосый)
Cубтитры: русские, английские (отключаемые)
Формат: HDRip-AVC, MKV, H.264, AC3
Страна: США
Режиссер: Луи Морно
Жанр: ужасы, триллер
Продолжительность: 01:33:23
Год выпуска: 2012
В ролях: Ниа Пиплз, Стивен Бауэр, Стивен Ри, Эд Куинн, Ана Улару, Рэйчел ДиПилло, Гай Уилсон, Адам Кроусделл, Золтан Бутуч

Описание: Перезагрузка франшизы о Человеке-волке.
Действие фильма разворачивается в небольшой деревушке девятнадцатого века.
Жители деревни начинают гибнуть один за другим от лап неведомого зверя.
Молодой человек, изучающий врачебное дело под руководстом местного доктора, решает вступить в ряды охотников за оборотнями.
Кто он, этот монстр? Один из жителей деревни? Или нечто совершенно неведомое... человек днем, чудовище ночью?



Видео: 1024х576 (1.77:1), 23,976 fps, AVC (х264), High@L4.1, ~1791 Kbps avg, 0.127 bit/pixel
Аудио: 48.0 KHz, AC3 Dolby Digital, 6 каналов (Front: L C R, Side: L R, LFE), ~448.00 kbps avg
Общее
Уникальный идентификатор: 217316325912958535117677865520186168864 (0xA37D9A1943967136AC79E53F5F429620)
Полное имя: D:\Video\...\oboroten_[tfile.me].mkv
Формат: Matroska
Версия формата: Version 2
Размер файла: 1,46 Гбайт
Продолжительность: 1 ч. 33 м.
Общий поток: 2240 Кбит/сек
Название фильма: Oboroten'.2012.L2.HDRip.x264.potroks
Дата кодирования: UTC 2012-10-19 06:18:06
Программа кодирования: mkvmerge v5.7.0 ('The Whirlwind') built on Jul8 2012 20:08:51
Библиотека кодирования: libebml v1.2.3 + libmatroska v1.3.0
Видео
Идентификатор: 1
Формат: AVC
Формат/Информация: Advanced Video Codec
Профиль формата: High@L4.1
Параметр CABAC формата: Да
Параметр ReFrames формата: 12 кадров
Идентификатор кодека: V_MPEG4/ISO/AVC
Продолжительность: 1 ч. 33 м.
Битрейт: 1791 Кбит/сек
Ширина: 1024 пикселя
Высота: 576 пикселей
Соотношение сторон: 16:9
Режим частоты кадров: Постоянный
Частота кадров: 23,976 кадра/сек
Цветовое пространство: YUV
Субдискретизация насыщенности: 4:2:0
Битовая глубина: 8 бит
Тип развёртки: Прогрессивная
Бит/(Пиксели*Кадры): 0.127
Размер потока: 1,14 Гбайт (78%)
Заголовок: Оборотень
Библиотека кодирования: x264 core 128 r2216M 198a7ea
Настройки программы: cabac=1 / ref=13 / deblock=1:-2:-2 / analyse=0x3:0x133 / me=umh / subme=11 / psy=1 / psy_rd=0.50:0.05 / mixed_ref=1 / me_range=32 / chroma_me=1 / trellis=2 / 8x8dct=1 / cqm=0 / deadzone=21,11 / fast_pskip=0 / chroma_qp_offset=-3 / threads=8 / lookahead_threads=1 / sliced_threads=0 / nr=0 / decimate=1 / interlaced=0 / bluray_compat=0 / constrained_intra=0 / bframes=14 / b_pyramid=1 / b_adapt=2 / b_bias=0 / direct=3 / weightb=1 / open_gop=0 / weightp=2 / keyint=240 / keyint_min=23 / scenecut=40 / intra_refresh=0 / rc_lookahead=150 / rc=2pass / mbtree=1 / bitrate=1791 / ratetol=1.0 / qcomp=0.70 / qpmin=10 / qpmax=58 / qpstep=4 / cplxblur=20.0 / qblur=0.5 / vbv_maxrate=20000 / vbv_bufsize=25000 / nal_hrd=none / ip_ratio=1.35 / aq=1:0.70
Язык: English
Default: Да
Forced: Нет
Аудио
Идентификатор: 2
Формат: AC-3
Формат/Информация: Audio Coding 3
Расширение режима: CM (complete main)
Параметр Endianness формата: Big
Идентификатор кодека: A_AC3
Продолжительность: 1 ч. 33 м.
Вид битрейта: Постоянный
Битрейт: 448 Кбит/сек
Каналы: 6 каналов
Расположение каналов: Front: L C R, Side: L R, LFE
Частота: 48,0 КГц
Битовая глубина: 16 бит
Метод сжатия: С потерями
Размер потока: 299 Мбайт (20%)
Заголовок: den904 и DeadSno
Язык: Russian
Default: Да
Forced: Нет
Текст #1
Идентификатор: 3
Формат: UTF-8
Идентификатор кодека: S_TEXT/UTF8
Идентификатор кодека/Информация: UTF-8 Plain Text
Язык: Russian
Default: Нет
Forced: Нет
Текст #2
Идентификатор: 4
Формат: UTF-8
Идентификатор кодека: S_TEXT/UTF8
Идентификатор кодека/Информация: UTF-8 Plain Text
Язык: English
Default: Нет
Forced: Нет











реклама партнёра


Вернуться к началу
 Профиль Отправить личное сообщение  
 
   Похожие торренты   Автор   Торрент   Размер 
В этой теме нет новых непрочитанных сообщений. Моя мама - оборотень / My Mom's a Werewolf [Ужасы, комедия, 1989] DVDRip, Avo

salma3

12 | 3

746.95 МБ

В этой теме нет новых непрочитанных сообщений. Оборотень / Wer [Ужасы, триллер, детектив, 2013] WEBRip, avo

Dracon

233 | 10

1.06 ГБ

В этой теме нет новых непрочитанных сообщений. Оборотень / Wer [триллер, ужасы, детектив, 2013] WEB-DL 720p, Dub [Чистый звук]

Dracon

371 | 9

2.87 ГБ

В этой теме нет новых непрочитанных сообщений. Оборотень / Wer [триллер, ужасы, детектив, 2013] WEB-DLRip, Dub [Чистый звук]

Dracon

616 | 10

1.37 ГБ

В этой теме нет новых непрочитанных сообщений. Волчонок / Оборотень / Teen Wolf [S01-04] [Ужасы, триллер, драма, комедия, 2011-2014] WEB-DLRip, Mvo [VO-production]

salma3

119 | 73

23.03 ГБ

В этой теме нет новых непрочитанных сообщений. Оборотень / Ginger Snaps [Ужасы, драма, 2000] BDRemux 1080p, Dvo+Sub

salma3

6 | 4

31.01 ГБ

В этой теме нет новых непрочитанных сообщений. Оборотень / Ginger Snaps [Ужасы, драма, 2000] BDRip 720p, Dvo+Sub

salma3

13 | 3

7.52 ГБ


Начать новую тему Ответить на тему  [ 1 сообщение ] 




Для Мосгорсуда, Роскомнадзора и рекламодателей:: mosgorsud-torrent[собачка]yandex.ru