Торрент файл
скачать торрент магнет ссылка Добавлен: 15 окт 2012, 11:25
Размер: 1.46 ГБ
Сидеров: 26
Личеров: 6
Автор

СообщениеДобавлено: 15 окт 2012, 11:25 

В сети
Супермодератор
Аватара пользователя
Дата регистрации:
15 фев 2012, 16:44
Возраст: 27
Спасибо: 5143 / 2090
Сообщения: 17486
Приключения Посейдона / The Poseidon Adventure
Страна: США
Жанр:боевик, триллер, драма, приключения
Год выпуска: 2005
Продолжительность: 2:54:09 (01:28:04 + 01:26:05)

Перевод: Профессиональный (двухголосый закадровый)
Cубтитры: нет
Оригинальная аудиодорожка: нет

Режиссеры: Джон Путч / John Putch

В ролях: Адам Болдуин, Рутгер Хауэр, Стив Гуттенберг, Брайан Браун, Си Томас Хауэлл, Питер Уэллер, Алекс Кингстон, Алекса Хэмилтон, Клайв Мэнтл, Сильвия Симс, Эмбер Сейнсбери, Рори Копус, Тайнери Ван Вик, Питер Батлер, Эндрю Брэнт, Натали Болтт, Рассел Савадьер, Фаруг Велли Омар, Дэйл Абрахамс, Мэтт Риппи, Ив Шапира, Кэти Феррингер, Дамисани Мбебе, Шейн Мэйн, Эдриан Гелли...

Описание: Добро пожаловать на борт «Посейдона» — настоящего плавучего города. Среди его двух с половиной тысяч пассажиров находится Майк Рого, тайный агент американского министерства безопасности. А среди команды, насчитывающей более тысячи человек, спрятался террорист Касим, намеревающийся потрясти мир новым ужасным терактом.
Узнав об опасности, капитан «Посейдона» на полном ходу направляет лайнер к ближайшему порту. Но катастрофу уже не предотвратить. Через несколько минут после наступления нового года на борту корабля раздается взрыв. Многотонный монстр медленно погружается в черные океанские глубины. Пока оставшиеся в живых отчаянно борются за жизнь и пробиваются наверх… к днищу «Посейдона», Рого и Касим ведут между собой борьбу…





Исходник: DVD9 R5
Тип релиза: DVDRip
Контейнер: AVI

Видео: 656x368 (16:9), 23,976 fps, XviD ~ 1061 kbps avg, 0.183 bit/pixel
Аудио: 48 kHz, MP3, 2 ch, 128.00 kbps



Общее
Полное имя: Prikljuchenie.Posejdona.2005.DVDRip.1,45.avi
Формат: AVI
Формат/Информация: Audio Video Interleave
Размер файла: 755 Мбайт
Продолжительность: 1 ч. 28 м.
Общий поток: 1198 Кбит/сек
Программа кодирования: VirtualDubMod 1.5.10.3 | http://www.virtualdub-fr.org || (build 2550/release)
Библиотека кодирования: VirtualDubMod build 2550/release

Видео
Идентификатор: 0
Формат: MPEG-4 Visual
Профиль формата: Advanced Simple@L5
Параметр BVOP формата: 1
Параметр QPel формата: Нет
Параметр GMC формата: Без точки перехода
Параметр матрицы формата: Выборочная
Идентификатор кодека: XVID
Идентификатор кодека/Подсказка: XviD
Продолжительность: 1 ч. 28 м.
Битрейт: 1061 Кбит/сек
Ширина: 656 пикселей
Высота: 368 пикселей
Соотношение сторон: 16:9
Частота кадров: 23,976 кадра/сек
Цветовое пространство: YUV
Субдискретизация насыщенности: 4:2:0
Битовая глубина: 8 бит
Тип развёртки: Прогрессивная
Метод сжатия: С потерями
Бит/(Пиксели*Кадры): 0.183
Размер потока: 668 Мбайт (89%)
Библиотека кодирования: XviD 65

Аудио
Идентификатор: 1
Формат: MPEG Audio
Версия формата: Version 1
Профиль формата: Layer 3
Идентификатор кодека: 55
Идентификатор кодека/Подсказка: MP3
Продолжительность: 1 ч. 28 м.
Вид битрейта: Постоянный
Битрейт: 128 Кбит/сек
Каналы: 2 канала
Частота: 48,0 КГц
Метод сжатия: С потерями
Размер потока: 80,6 Мбайт (11%)
Выравнивание: Соединение по промежуткам
Продолжительность промежутка: 42мс. (1,00 видеокадр)
Время предзагрузки промежутка: 504мс.
Библиотека кодирования: L3.99r
Настройки программы: -m s -V 4 -q 2 -lowpass 17 -b 128





реклама партнёра


Вернуться к началу
 Профиль Отправить личное сообщение  
 
   Похожие торренты   Автор   Торрент   Размер 
В этой теме нет новых непрочитанных сообщений. Приключения Мортадело и Филимона / Mortadelo & Filemon - The Big Adventure [боевик, комедия, приключения, семейный, 2003] HDRip, Mvo [Лицензия]

salma3

49 | 8

1.45 ГБ

В этой теме нет новых непрочитанных сообщений. Король приключений / Adventure King [Боевик, приключения, 1996] DVDRip, Mvo

salma3

45 | 4

746.59 МБ

В этой теме нет новых непрочитанных сообщений. Секс ради выживания / Three [Триллер, драма, приключения, 2005] DVDRip, Dub

salma3

93 | 6

1.37 ГБ

В этой теме нет новых непрочитанных сообщений. Тень якудза / Into The Sun [Боевик, триллер, приключения, 2005] BDRip 1080p, Mvo+Sub

salma3

27 | 3

7.46 ГБ

В этой теме нет новых непрочитанных сообщений. Полярные приключения / Polar Adventure [Мультфильм, комедия, приключения, семейный, 2015] WEB-DLRip, dUB [iTunes]

salma3

217 | 74

1.46 ГБ

В этой теме нет новых непрочитанных сообщений. Полярные приключения / Polar Adventure [Мультфильм, комедия, приключения, семейный, 2015] WEB-DLRip, dUB [iTunes]

salma3

176 | 17

744.81 МБ

В этой теме нет новых непрочитанных сообщений. И грянул гром / A Sound of Thunder [ужасы, фантастика, боевик, триллер, приключения, 2005] BDRip 1080p, Dub

salma3

36 | 7

11.61 ГБ


Начать новую тему Ответить на тему  [ 1 сообщение ] 




Для Мосгорсуда, Роскомнадзора и рекламодателей:: mosgorsud-torrent[собачка]yandex.ru