Торрент файл
скачать торрент магнет ссылка Добавлен: 07 окт 2012, 12:10
Размер: 738.18 МБ
Сидеров: 62
Личеров: 4
Автор

СообщениеДобавлено: 07 окт 2012, 12:10 

Не в сети
Супермодератор
Аватара пользователя
Дата регистрации:
15 фев 2012, 16:44
Возраст: 27
Спасибо: 5143 / 2090
Сообщения: 17478
Экспресс из нянь / The Nanny Express

Перевод: Любительский (одноголосый), cубтитры: отсутствуют
Формат: DVDRip, AVI, XviD, MP3
Страна: США
Режиссер: Брэдфорд Мэй
Жанр: драма, семейный
Продолжительность: 01:29:08
Год выпуска: 2008
В ролях: Ванесса Марсил, Бреннан Эллиотт, Стейси Кич, Натали Дрейфусс, Дин Стокуэлл, Дорри Бартон, Питер Добсон, Дэвид Бэрри Грэй, Урия Шелтон, Дженнифер Сибел
Описание: Мама Эмили и Бена умерла, её сбил пьяный водитель. И теперь они издеваются над нянями, которых нанимает папа, с тем, чтобы они уволились как только начнут работу. Но в итоге в их доме появляется няня по имени Кейт.
Фильм скорее для школьного возраста, чем семейный, так как сюжет довольно прост.




Видео: 624x352 (1.77:1), 23.976 fps, XviD MPEG-4 ~956 kbps avg, 0.18 bit/pixel
Аудио: 48 kHz, MPEG Layer 3, 2 ch, ~192.00 kbps avg

General
Complete name : D:\Nanny Express.2008.avi
Format : AVI
Format/Info : Audio Video Interleave
File size : 738 MiB
Duration : 1h 29mn
Overall bit rate : 1 158 Kbps
Writing application : VirtualDubMod 1.5.10.2 (build 2540/release)
Writing library : VirtualDubMod build 2540/release
Video
ID : 0
Format : MPEG-4 Visual
Format profile : Advanced Simple@L5
Format settings, BVOP : Yes
Format settings, QPel : No
Format settings, GMC : No warppoints
Format settings, Matrix : Default (H.263)
Muxing mode : Packed bitstream
Codec ID : XVID
Codec ID/Hint : XviD
Duration : 1h 29mn
Bit rate : 956 Kbps
Width : 624 pixels
Height : 352 pixels
Display aspect ratio : 16:9
Frame rate : 23.976 fps
Color space : YUV
Chroma subsampling : 4:2:0
Bit depth : 8 bits
Scan type : Progressive
Bits/(Pixel*Frame) : 0.182
Stream size : 610 MiB (83%)
Writing library : XviD 1.2.1 (UTC 2008-12-04)
Audio
ID : 1
Format : MPEG Audio
Format version : Version 1
Format profile : Layer 3
Mode : Joint stereo
Mode extension : Intensity Stereo
Codec ID : 55
Codec ID/Hint : MP3
Duration : 1h 29mn
Bit rate mode : Constant
Bit rate : 192 Kbps
Channel(s) : 2 channels
Sampling rate : 48.0 KHz
Stream size : 122 MiB (17%)
Alignment : Split accross interleaves
Interleave, duration : 42 ms (1.00 video frame)
Interleave, preload duration : 500 ms







реклама партнёра


Вернуться к началу
 Профиль Отправить личное сообщение  
 
   Похожие торренты   Автор   Торрент   Размер 
В этой теме нет новых непрочитанных сообщений. Шугарлендский экспресс / The Sugarland Express [Криминальная драма, приключения, комедия, 1974] Blu-Ray, Mvo+Sub

salma3

6 | 6

32.87 ГБ

В этой теме нет новых непрочитанных сообщений. Шугарлендский Экспресс / The Sugarland Express [драма, комедия, криминал, приключения, 1974] WEB-DLRip, Mvo

salma3

1 | 2

1.47 ГБ

В этой теме нет новых непрочитанных сообщений. Шугарлендский экспресс / The Sugarland Express [драма, комедия, криминал, приключения, 1974] BDRip-AVC, Mvo

salma3

15 | 2

1.45 ГБ

В этой теме нет новых непрочитанных сообщений. Шугарлендский экспресс / The Sugarland Express [драма, комедия, криминал, приключения, 1974] BDRip 1080p, Mvo+Sub

salma3

4 | 4

16.89 ГБ

В этой теме нет новых непрочитанных сообщений. Шугарлендский экспресс / The Sugarland express [драма, комедия, криминал, приключения, 1974] BDRip 720p, Mvo+Sub

salma3

23 | 12

4.9 ГБ

В этой теме нет новых непрочитанных сообщений. Экспресс Фон Райана / Von Ryan's Express [боевик, приключения, военный, 1965] HDRip, Mvo

salma3

5 | 5

1.45 ГБ

В этой теме нет новых непрочитанных сообщений. Мистер Няня  / Mr. Nanny [Комедия, Семейный, 1993] DVDRip, Mvo

salma3

0 | 2

1.46 ГБ


Начать новую тему Ответить на тему  [ 1 сообщение ] 




Для Мосгорсуда, Роскомнадзора и рекламодателей:: mosgorsud-torrent[собачка]yandex.ru