Торрент файл
скачать торрент магнет ссылка Добавлен: 07 окт 2012, 12:10
Размер: 738.18 МБ
Сидеров: 62
Личеров: 4
Автор

СообщениеДобавлено: 07 окт 2012, 12:10 

Не в сети
Супермодератор
Аватара пользователя
Дата регистрации:
15 фев 2012, 16:44
Возраст: 28
Спасибо: 6642 / 2146
Сообщения: 45681
Экспресс из нянь / The Nanny Express

Перевод: Любительский (одноголосый), cубтитры: отсутствуют
Формат: DVDRip, AVI, XviD, MP3
Страна: США
Режиссер: Брэдфорд Мэй
Жанр: драма, семейный
Продолжительность: 01:29:08
Год выпуска: 2008
В ролях: Ванесса Марсил, Бреннан Эллиотт, Стейси Кич, Натали Дрейфусс, Дин Стокуэлл, Дорри Бартон, Питер Добсон, Дэвид Бэрри Грэй, Урия Шелтон, Дженнифер Сибел
Описание: Мама Эмили и Бена умерла, её сбил пьяный водитель. И теперь они издеваются над нянями, которых нанимает папа, с тем, чтобы они уволились как только начнут работу. Но в итоге в их доме появляется няня по имени Кейт.
Фильм скорее для школьного возраста, чем семейный, так как сюжет довольно прост.




Видео: 624x352 (1.77:1), 23.976 fps, XviD MPEG-4 ~956 kbps avg, 0.18 bit/pixel
Аудио: 48 kHz, MPEG Layer 3, 2 ch, ~192.00 kbps avg

General
Complete name : D:\Nanny Express.2008.avi
Format : AVI
Format/Info : Audio Video Interleave
File size : 738 MiB
Duration : 1h 29mn
Overall bit rate : 1 158 Kbps
Writing application : VirtualDubMod 1.5.10.2 (build 2540/release)
Writing library : VirtualDubMod build 2540/release
Video
ID : 0
Format : MPEG-4 Visual
Format profile : Advanced Simple@L5
Format settings, BVOP : Yes
Format settings, QPel : No
Format settings, GMC : No warppoints
Format settings, Matrix : Default (H.263)
Muxing mode : Packed bitstream
Codec ID : XVID
Codec ID/Hint : XviD
Duration : 1h 29mn
Bit rate : 956 Kbps
Width : 624 pixels
Height : 352 pixels
Display aspect ratio : 16:9
Frame rate : 23.976 fps
Color space : YUV
Chroma subsampling : 4:2:0
Bit depth : 8 bits
Scan type : Progressive
Bits/(Pixel*Frame) : 0.182
Stream size : 610 MiB (83%)
Writing library : XviD 1.2.1 (UTC 2008-12-04)
Audio
ID : 1
Format : MPEG Audio
Format version : Version 1
Format profile : Layer 3
Mode : Joint stereo
Mode extension : Intensity Stereo
Codec ID : 55
Codec ID/Hint : MP3
Duration : 1h 29mn
Bit rate mode : Constant
Bit rate : 192 Kbps
Channel(s) : 2 channels
Sampling rate : 48.0 KHz
Stream size : 122 MiB (17%)
Alignment : Split accross interleaves
Interleave, duration : 42 ms (1.00 video frame)
Interleave, preload duration : 500 ms







реклама партнёра


Вернуться к началу
 Профиль Отправить личное сообщение  
 
   Похожие торренты   Автор   Торрент   Размер 
В этой теме нет новых непрочитанных сообщений. Шанхайский экспресс / Экспресс миллионеров / Foo gwai lit che / Shanghai Express / Millionaires Express [Боевые искусства, комедия, вестерн, 1986] DVD5, Avo+Mvo

salma3

32 | 5

3.96 ГБ

В этой теме нет новых непрочитанных сообщений. Полуночный экспресс / Midnight Express [триллер, драма, криминал, биография, 1978] BDRemux 1080p, Dub+Mvo+Avo

salma3

4 | 11

28.09 ГБ

В этой теме нет новых непрочитанных сообщений. Транс-Европейский экспресс / Trans-Europ-Express [триллер, 1966] BDRemux 1080p, Avo

salma3

3 | 8

26.3 ГБ

В этой теме нет новых непрочитанных сообщений. Няня / The Nanny [S01-06] [Комедия, Семейный, 1993-1999] DVDRip, Mvo [ДТВ]

salma3

7 | 5

35.29 ГБ

В этой теме нет новых непрочитанных сообщений. Seymore Butts' The Anal Express / Анальный экспресс Сеймура Баттса (Seymore Butts, Seymore Butts) [2004 г., Gonzo, Anal, Black, Oral, Threesomes, DVDRip]

max77777

43 | 11

1.36 ГБ

В этой теме нет новых непрочитанных сообщений. Мистер Няня / Mr. Nanny [Боевик, комедия, семейный, 1993] WEB-DL 1080p, Mvo+Dvo+Avo+Sub

salma3

44 | 25

3.91 ГБ

В этой теме нет новых непрочитанных сообщений. Моя ужасная няня / Nanny McPhee [фэнтези, комедия, семейный, 2005] BDRip-AVC, Dub

salma3

24 | 9

1.46 ГБ


Начать новую тему Ответить на тему  [ 1 сообщение ] 




Для Мосгорсуда, Роскомнадзора и рекламодателей:: mosgorsud-torrent[собачка]yandex.ru