Торрент файл
скачать торрент магнет ссылка Добавлен: 04 окт 2012, 14:25
Размер: 1.46 ГБ
Сидеров: 176
Личеров: 10
Автор

СообщениеДобавлено: 04 окт 2012, 14:25 

Не в сети
Супермодератор
Аватара пользователя
Дата регистрации:
15 фев 2012, 16:44
Возраст: 27
Спасибо: 6158 / 2122
Сообщения: 31697

Запретная зона / Chernobyl Diaries

Год выхода: 2012
Жанр: ужасы
Режиссер: Брэдли Паркер
В ролях: Ингрид Болсай Бердал, Дмитрий Дьяченко, Оливия Дадли, Девин Келли, Джесси МакКартни, Натан Филлипс, Джонатан Садовский, Милош Тимотиевич, Милутин Милошевич, Иван Джорджевич

О фильме:
Шестеро молодых туристов-экстремалов прибыли на каникулы в Украину. Узнав о том, что в Зону отчуждения устраиваются экскурсии, они нанимают гида и отправляются за незабываемыми впечатлениями. И таковые не заставляют их долго ждать. Казалось, радиоактивный город пуст и заброшен. Там не осталось ничего живого. Но как только солнце прячется за горизонт, Припять оживает. Нечеловеческие крики сотрясают ночной воздух. Незадачливых путешественников охватывают ужас и паника. Они понимают, что не одни в этом мёртвом городе.


Страна: США
Студия: Alcon Entertainment, FilmNation Entertainment
Продолжительность: 01:28:22
Перевод: Дублированный [лицензия]

Файл
Кодек: h.264
Качество: HDRip-AVC
Видео: 1024x544 (1.85:1), 23.976 fps, 1 598 Kbps (0.120 bit/pixel)
Звук:
Аудио #1: AC-3, 48.0 KHz, 6 ch, 384 Kbps, CBR (Russian)
Аудио #2: AC-3, 48.0 KHz, 6 ch, 384 Kbps, CBR (English)

Семпл




Format: Matroska
Format version: Version 2
File size: 1.46 GiB
Duration: 1h 28mn
Overall bit rate: 2 363 Kbps
Encoded date: UTC 2012-10-03 19:50:11
Writing application: mkvmerge v5.6.0 ('Kenya Kane') built on May 27 2012 16:44:04
Writing library: libebml v1.2.3 + libmatroska v1.3.0

Video
ID: 1
Format: AVC
Format/Info: Advanced Video Codec
Format profile: High@L4.1
Format settings, CABAC: Yes
Format settings, ReFrames: 12 frames
Codec ID: V_MPEG4/ISO/AVC
Duration: 1h 28mn
Bit rate: 1 598 Kbps
Width: 1 024 pixels
Height: 544 pixels
Display aspect ratio: 1.85:1
Original display aspect ratio: 1.85:1
Frame rate mode: Constant
Frame rate: 23.976 fps
Color space: YUV
Chroma subsampling: 4:2:0
Bit depth: 8 bits
Scan type: Progressive
Bits/(Pixel*Frame): 0.120
Stream size: 979 MiB (66%)
Writing library: x264 core 125 r2200 999b753
Encoding settings: cabac=1 / ref=12 / deblock=1:-3:-3 / analyse=0x3:0x113 / me=umh / subme=9 / psy=1 / psy_rd=1.00:0.00 / mixed_ref=1 / me_range=32 / chroma_me=1 / trellis=2 / 8x8dct=1 / cqm=0 / deadzone=21,11 / fast_pskip=1 / chroma_qp_offset=-2 / threads=6 / lookahead_threads=1 / sliced_threads=0 / nr=0 / decimate=1 / interlaced=0 / bluray_compat=0 / constrained_intra=0 / bframes=6 / b_pyramid=2 / b_adapt=2 / b_bias=0 / direct=1 / weightb=1 / open_gop=0 / weightp=2 / keyint=240 / keyint_min=23 / scenecut=40 / intra_refresh=0 / rc=2pass / mbtree=0 / bitrate=1598 / ratetol=1.0 / qcomp=0.60 / qpmin=0 / qpmax=69 / qpstep=4 / cplxblur=20.0 / qblur=0.5 / ip_ratio=1.40 / pb_ratio=1.30 / aq=1:1.00
Language: English
Default: Yes
Forced: No

Audio #1
ID: 2
Format: AC-3
Format/Info: Audio Coding 3
Mode extension: CM (complete main)
Format settings, Endianness: Big
Codec ID: A_AC3
Duration: 1h 28mn
Bit rate mode: Constant
Bit rate: 384 Kbps
Channel(s): 6 channels
Channel positions: Front: L C R, Side: L R, LFE
Sampling rate: 48.0 KHz
Bit depth: 16 bits
Compression mode: Lossy
Stream size: 243 MiB (16%)
Language: Russian
Default: Yes
Forced: No

Audio #2
ID: 3
Format: AC-3
Format/Info: Audio Coding 3
Mode extension: CM (complete main)
Format settings, Endianness: Big
Codec ID: A_AC3
Duration: 1h 28mn
Bit rate mode: Constant
Bit rate: 384 Kbps
Channel(s): 6 channels
Channel positions: Front: L C R, Side: L R, LFE
Sampling rate: 48.0 KHz
Bit depth: 16 bits
Compression mode: Lossy
Stream size: 243 MiB (16%)
Language: English
Default: No
Forced: No


Релиз от: Freedomz




реклама партнёра


Вернуться к началу
 Профиль Отправить личное сообщение  
 
   Похожие торренты   Автор   Торрент   Размер 
В этой теме нет новых непрочитанных сообщений. Запретная Зона 3D / Bunker of the Dead [ужасы, боевик, комедия, 2015] WEBRip, Dub [Чистый звук]

salma3

370 | 17

1.36 ГБ

В этой теме нет новых непрочитанных сообщений. Запретная зона: Похищение инопланетянином / Forbidden zone: Alien abduction [фантастика, триллер, 1996] DVDRip, Dvo [лицензия]

salma3

43 | 5

1.46 ГБ

В этой теме нет новых непрочитанных сообщений. Запретная Зона 3D / Bunker of the Dead [ужасы, боевик, комедия, 2015] BDRip 720p, Dub [Чистый звук]

salma3

210 | 14

4.17 ГБ

В этой теме нет новых непрочитанных сообщений. Зона мертвых / Zone of the Dead [ужасы, боевик, 2009] HDRip-AVC, Mvo

salma3

0 | 11

745.88 МБ

В этой теме нет новых непрочитанных сообщений. The Truck Driver Chernobyl [Race, Sport, Simulator, 2015] [Лицензия]

Tobus

1 | 0

65.63 МБ

В этой теме нет новых непрочитанных сообщений. Запретная комната / The Forbidden Room [комедия, детектив, 2015] HDRip, Dvo

salma3

501 | 48

1.45 ГБ

В этой теме нет новых непрочитанных сообщений. Запретная комната / The Forbidden Room [Комедия, детектив, 2015] HDRip, Dvo

salma3

51 | 3

1.37 ГБ


Начать новую тему Ответить на тему  [ 1 сообщение ] 




Для Мосгорсуда, Роскомнадзора и рекламодателей:: mosgorsud-torrent[собачка]yandex.ru