Торрент файл
скачать торрент магнет ссылка Добавлен: 02 окт 2012, 19:54
Размер: 1.45 ГБ
Сидеров: 677
Личеров: 40
Статус: (Dracon)
Автор

СообщениеДобавлено: 02 окт 2012, 19:54 

Не в сети
Супермодератор
Аватара пользователя
Дата регистрации:
15 фев 2012, 16:44
Возраст: 27
Спасибо: 5143 / 2090
Сообщения: 17478
Медальон / Stolen

Перевод: Профессиональный (полное дублирование)[Лицензия]
Субтитры: отсутствуют
Формат: DVDRip-AVC, MKV, H.264, AC3
Страна: США
Режиссер: Саймон Уэст
Жанр: боевик, триллер
Продолжительность: 01:31:39
Год выпуска: 2012
В ролях: Николас Кейдж, Джош Лукас, Дэнни Хьюстон, Малин Акерман, Сами Гэйл, М. К. Гейни, Марк Вэлли, Мэтт Нолан, Мишель Торрес, Дж.Д. Эвермор
Описание: Неизвестные похищают дочь бывшего вора в законе, решившего завязать с темным прошлым. Похитители сообщают, что держат девочку-подростка в багажнике такси. У отца есть всего несколько часов, чтобы отыскать киднепперов и спасти ребенка.


Видео:720x400p (16:9), 25.000 fps, AVC MPEG4(x264), High@L4.1 ~1884 Kbps avg, 0.262 bit/pixel
Аудио:48 kHz, AC3 Dolby Digital, 6 ch, ~384 kbps avg
General
Unique ID: 198301211449789198636131637986112453375 (0x952F6C92BB3418309159A5D3F25E3AFF)
Complete name: C:\Documents and Settings\User\Мои документы\Medalion.2012.Dc1.DVDRip-AVC.mkv
Format: Matroska
Format version: Version 2
File size: 1.45 GiB
Duration: 1h 31mn
Overall bit rate: 2 267 Kbps
Encoded date: UTC 2012-10-01 22:01:45
Writing application: mkvmerge v5.0.1 ('Es ist Sommer') built on Oct 24 2011 19:45:06
Writing library: libebml v1.2.2 + libmatroska v1.3.0
Video
ID: 1
Format: AVC
Format/Info: Advanced Video Codec
Format profile: High@L4.1
Format settings, CABAC: Yes
Format settings, ReFrames: 5 frames
Codec ID: V_MPEG4/ISO/AVC
Duration: 1h 31mn
Bit rate: 1 884 Kbps
Width: 720 pixels
Height: 400 pixels
Display aspect ratio: 16:9
Frame rate: 25.000 fps
Color space: YUV
Chroma subsampling: 4:2:0
Bit depth: 8 bits
Scan type: Progressive
Bits/(Pixel*Frame): 0.262
Stream size: 1.18 GiB (81%)
Writing library: x264 core 125 r2200 999b753
Encoding settings: cabac=1 / ref=5 / deblock=1:-1:-1 / analyse=0x3:0x113 / me=umh / subme=8 / psy=1 / psy_rd=1.00:0.10 / mixed_ref=1 / me_range=16 / chroma_me=1 / trellis=1 / 8x8dct=1 / cqm=0 / deadzone=21,11 / fast_pskip=1 / chroma_qp_offset=-3 / threads=12 / lookahead_threads=2 / sliced_threads=0 / nr=0 / decimate=1 / interlaced=0 / bluray_compat=0 / constrained_intra=0 / bframes=3 / b_pyramid=2 / b_adapt=2 / b_bias=0 / direct=3 / weightb=1 / open_gop=0 / weightp=2 / keyint=250 / keyint_min=25 / scenecut=40 / intra_refresh=0 / rc_lookahead=50 / rc=2pass / mbtree=1 / bitrate=1884 / ratetol=1.0 / qcomp=0.60 / qpmin=0 / qpmax=69 / qpstep=4 / cplxblur=20.0 / qblur=0.5 / ip_ratio=1.40 / aq=1:1.00
Default: Yes
Forced: No
Audio
ID: 2
Format: AC-3
Format/Info: Audio Coding 3
Mode extension: CM (complete main)
Format settings, Endianness: Big
Codec ID: A_AC3
Duration: 1h 31mn
Bit rate mode: Constant
Bit rate: 384 Kbps
Channel(s): 6 channels
Channel positions: Front: L C R, Side: L R, LFE
Sampling rate: 48.0 KHz
Bit depth: 16 bits
Compression mode: Lossy
Delay relative to video: 1s 700ms
Stream size: 252 MiB (17%)
Language: Russian
Default: Yes
Forced: No











реклама партнёра


Вернуться к началу
 Профиль Отправить личное сообщение  
 
   Похожие торренты   Автор   Торрент   Размер 
В этой теме нет новых непрочитанных сообщений. 7 ящиков / 7 cajas [Боевик, триллер, 2012] DVDRip, Mvo [лицензия]

Dracon

50 | 2

2.05 ГБ

В этой теме нет новых непрочитанных сообщений. Похищенный ребенок / Stolen Child [Драма, 2012] HDTVRip, Mvo

salma3

75 | 6

1.37 ГБ

В этой теме нет новых непрочитанных сообщений. Чудодейственный медальон / Taaqat [мелодрама, криминал, 1995] DVDRip, Mvo [Red Media]

salma3

13 | 6

1.37 ГБ

В этой теме нет новых непрочитанных сообщений. Медальон Хититуйи / Hititya Madalyonun Sirri [Приключения, 2013] DVDRip, dvo

Dracon

1586 | 298

1.37 ГБ

В этой теме нет новых непрочитанных сообщений. Петля времени / Looper [фантастика, боевик, триллер, криминал, 2012] BDRip 720p, Dub+Avo [Лицензия]

salma3

74 | 4

4.37 ГБ

В этой теме нет новых непрочитанных сообщений. 7 ящиков / 7 cajas / 7 Boxes (Хуан Карлос Манеглиа, Тана Шембори) [2012, боевик, триллер, BDRip 720p | Лицензия] mvo

Nickolas3435

154 | 12

4.09 ГБ

В этой теме нет новых непрочитанных сообщений. Отбросы / The Throwaways (Тони Буи) [фэнтези, боевик, триллер, 2015] DVDRip, Mvo [Лицензия]

Dracon

15 | 0

1.37 ГБ


Начать новую тему Ответить на тему  [ 1 сообщение ] 




Для Мосгорсуда, Роскомнадзора и рекламодателей:: mosgorsud-torrent[собачка]yandex.ru